<?xml version="1.0" standalone="no"?>
<!DOCTYPE svg PUBLIC "-//W3C//DTD SVG 1.1//EN" "http://www.w3.org/Graphics/SVG/1.1/DTD/svg11.dtd" >
<svg xmlns="http://www.w3.org/2000/svg">
<metadata></metadata>
<defs>
<font id="lunchtype25condensed_light" horiz-adv-x="946" >
<font-face units-per-em="2048" ascent="1536" descent="-512" />
<missing-glyph horiz-adv-x="454" />
<glyph horiz-adv-x="0" />
<glyph horiz-adv-x="682" />
<glyph unicode=" "  horiz-adv-x="454" />
<glyph unicode="&#x09;" horiz-adv-x="454" />
<glyph unicode="&#xa0;" horiz-adv-x="454" />
<glyph unicode="!" horiz-adv-x="493" d="M180 0v147h133v-147h-133zM182 1063v356h129v-356l-28 -629h-72z" />
<glyph unicode="&#x22;" horiz-adv-x="677" d="M150 1214v228h116v-228l-22 -290h-76zM412 1214v228h116v-228l-22 -290h-76z" />
<glyph unicode="#" horiz-adv-x="1003" d="M10 432v100h201l49 365h-209v109h225l66 436h100l-63 -436h328l63 436h104l-65 -436h184v-109h-198l-52 -365h189v-100h-201l-59 -434h-105l64 434h-334l-66 -434h-100l64 434h-185zM313 532h328l53 365h-329z" />
<glyph unicode="$" horiz-adv-x="958" d="M63 424h113q4 -168 80 -250t190 -96v618l-65 21q-131 39 -203 124t-72 242q0 82 26 147.5t71 110.5t107.5 71t135.5 30v110h86v-110q178 -14 262.5 -121t84.5 -295h-107q-2 166 -64.5 240.5t-175.5 85.5v-566l60 -16q66 -18 122 -51t96 -81t62.5 -112.5t22.5 -150.5 q0 -96 -28.5 -168t-78 -121t-116 -74.5t-140.5 -29.5v-121h-86v121q-84 6 -152.5 32.5t-118.5 79.5t-79.5 134t-32.5 196zM217 1090q0 -117 53.5 -180.5t171.5 -96.5q2 -2 4 -2v541q-113 -12 -171 -81.5t-58 -180.5zM532 78q45 6 90.5 26.5t80 56.5t57 87t22.5 119 q0 78 -18.5 129t-51 84.5t-78.5 54t-102 37.5v-594z" />
<glyph unicode="%" horiz-adv-x="1468" d="M113 1073q0 66 14 130.5t43 114.5t75 82t107 32t105.5 -33t73 -85t42 -119t13.5 -134q0 -201 -65.5 -301.5t-168.5 -100.5q-106 0 -172.5 101.5t-66.5 312.5zM203 1059q0 -43 4 -94.5t19.5 -97.5t45 -76.5t80.5 -30.5q49 0 77 30.5t42 76.5t18.5 98.5t4.5 93.5 q0 43 -6.5 90t-21.5 87t-43 66.5t-71 26.5q-49 0 -78.5 -26.5t-45 -66.5t-20.5 -88t-5 -89zM340 -35q176 389 344 765t344 763l86 -41l-688 -1532zM885 401q0 66 13 130.5t43 114.5t75 82t106 32t105.5 -33t73 -85t42 -118.5t13.5 -134.5q0 -201 -65.5 -301t-168.5 -100 q-106 0 -171.5 101t-65.5 312zM973 387q0 -43 5 -94t20.5 -97t44 -77t79.5 -31q49 0 77 31t43 77t19.5 98t4.5 93q0 43 -6.5 90t-21.5 87t-43 66.5t-73 26.5q-49 0 -77.5 -26.5t-45 -66.5t-21.5 -88t-5 -89z" />
<glyph unicode="&#x26;" d="M49 408q0 72 16.5 126t47 97t73.5 77.5t97 67.5q-27 47 -46.5 85t-33 74t-19.5 72.5t-6 82.5q0 70 22.5 124t61.5 90.5t92.5 56t114.5 19.5q47 0 92 -16t80 -49t55.5 -82t20.5 -115t-18.5 -111.5t-55.5 -85.5t-91 -80t-128 -91l289 -469q47 94 58 174t11 170h80 q0 -115 -22.5 -220.5t-75.5 -189.5q23 -31 41 -59.5t39.5 -49t47.5 -29.5t62 1v-70q-10 -4 -25.5 -6t-21.5 -2q-55 0 -97 39t-95 111q-70 -78 -133.5 -114t-143.5 -36q-76 0 -146.5 24.5t-123.5 76t-86 128t-33 179.5zM150 389q0 -78 24.5 -135t64.5 -96t92 -57.5t107 -18.5 q63 0 119.5 34t112.5 99l-320 500q-45 -31 -82 -60.5t-63.5 -66.5t-40.5 -85t-14 -114zM264 1094q0 -47 6 -81t18.5 -64.5t33 -62.5t51.5 -77q43 27 89 57.5t86 66.5t65.5 79t25.5 92q0 98 -49 144t-133 46q-35 0 -69 -11t-61.5 -35.5t-45 -62.5t-17.5 -91z" />
<glyph unicode="'" horiz-adv-x="495" d="M188 1214v228h119v-228l-22 -290h-76z" />
<glyph unicode="(" horiz-adv-x="475" d="M115 594q0 137 23.5 264t64.5 245t97 225.5t122 205.5l65 -43q-115 -195 -189.5 -414t-74.5 -485q0 -264 76 -488.5t188 -418.5l-65 -39q-139 199 -223 432t-84 516z" />
<glyph unicode=")" horiz-adv-x="475" d="M-12 -315q113 195 188.5 419t75.5 488q0 133 -20.5 254t-55.5 231.5t-83 214t-105 199.5l65 43q66 -98 122 -205.5t97 -225.5t64.5 -245t23.5 -264q0 -283 -83.5 -516.5t-223.5 -431.5z" />
<glyph unicode="*" horiz-adv-x="712" d="M57 864l240 154l-236 158l37 77l230 -178l-15 338h88l-14 -338l227 180l39 -84l-239 -151l241 -158l-39 -78l-229 181l14 -338h-90l17 338l-234 -183z" />
<glyph unicode="+" horiz-adv-x="913" d="M100 582v96h312v377h90v-377h311v-96h-311v-383h-90v383h-312z" />
<glyph unicode="," horiz-adv-x="497" d="M168 0v160h149v-160l-49 -217h-78l37 217h-59z" />
<glyph unicode="-" horiz-adv-x="739" d="M123 557v94h493v-94h-493z" />
<glyph unicode="." horiz-adv-x="507" d="M180 0v160h148v-160h-148z" />
<glyph unicode="/" horiz-adv-x="610" d="M-16 -360l542 1914h101l-543 -1914h-100z" />
<glyph unicode="0" horiz-adv-x="999" d="M88 737q0 123 18.5 249t65.5 227.5t127 165t201 63.5t200.5 -63.5t126.5 -165t65.5 -227.5t18.5 -249q0 -397 -105.5 -577t-305.5 -180q-201 0 -306.5 180t-105.5 577zM199 737q0 -61 3 -133t13 -143.5t29.5 -138t52.5 -118.5t83 -83t120 -31t120 31t82.5 83t52 118.5 t30 138t13.5 143.5t3 133q0 92 -11.5 196.5t-43 194t-91 147.5t-155.5 58t-155.5 -58t-91.5 -147.5t-43 -194t-11 -196.5z" />
<glyph unicode="1" horiz-adv-x="634" d="M143 1055v86q45 0 89 14t79 45t55.5 80t20.5 119h100v-1399h-104v1055h-240z" />
<glyph unicode="2" horiz-adv-x="911" d="M94 0v147q0 127 45 215.5t111.5 154t144.5 118.5t144.5 110.5t111.5 128t45 173.5q0 135 -57 199.5t-180 64.5q-121 0 -173.5 -72t-58.5 -213h-108q2 193 93 294t247 101q164 0 256 -97t92 -277q0 -127 -45 -210t-111.5 -143.5t-144.5 -112t-144.5 -113.5t-111.5 -147 t-45 -215h612v-106h-723z" />
<glyph unicode="3" horiz-adv-x="940" d="M82 377h111q12 -143 87.5 -216t186.5 -73q123 0 198.5 74t75.5 221q0 154 -68.5 222.5t-221.5 68.5h-33v94h33q137 0 197.5 63.5t60.5 202.5q0 129 -60.5 201t-173.5 72t-180.5 -71t-67.5 -214h-112q0 96 26.5 170t72.5 123t110.5 74.5t142.5 25.5q166 0 259 -99t93 -282 q0 -127 -37 -195.5t-96 -115.5q88 -53 127 -137t39 -203q0 -90 -26.5 -164t-77 -127t-122 -82.5t-159.5 -29.5q-84 0 -153.5 25.5t-121 75.5t-80 125t-30.5 171z" />
<glyph unicode="4" horiz-adv-x="915" d="M70 264v92l524 1037h100v-1024h152v-105h-152v-264h-104v264h-520zM164 369h426v852z" />
<glyph unicode="5" horiz-adv-x="911" d="M88 373h111q2 -135 72.5 -211t179.5 -76q133 0 197.5 95t64.5 282q0 193 -65.5 287t-188.5 94q-92 0 -146.5 -40t-91.5 -122h-98l27 711h616v-111h-518l-12 -467q33 59 84 96t155 37q162 0 255 -120.5t93 -366.5q0 -109 -25.5 -198t-74.5 -152.5t-117.5 -97t-154.5 -33.5 q-74 0 -139.5 24.5t-116 73.5t-79 122.5t-28.5 172.5z" />
<glyph unicode="6" d="M82 625q0 227 35 382.5t93 253t133 139.5t157 42q63 0 121.5 -21.5t103.5 -63.5t72.5 -104.5t29.5 -146.5h-108q0 117 -58.5 172t-156.5 55q-66 0 -122 -38t-98 -115.5t-66.5 -196.5t-24.5 -283q49 123 133 184.5t182 61.5q78 0 143.5 -33.5t112.5 -97t73.5 -153 t26.5 -201.5q0 -115 -30.5 -204t-83 -150.5t-122 -94t-149.5 -32.5q-180 0 -288.5 165.5t-108.5 479.5zM193 459q0 -76 24.5 -143.5t64.5 -119t91 -81t106 -29.5q70 0 121 29.5t85 81t50.5 119t16.5 143.5q0 68 -10.5 136.5t-39 122.5t-81 89t-134.5 35q-63 0 -117.5 -31 t-93 -84t-61 -122.5t-22.5 -145.5z" />
<glyph unicode="7" horiz-adv-x="923" d="M88 1294v99h748v-115q-61 -82 -117 -170q-47 -76 -97.5 -167t-78.5 -183q-53 -160 -84 -296t-47 -241q-18 -121 -25 -221h-129q8 106 29 225q16 102 45.5 230.5t77.5 261.5q47 133 103 238.5t108 181.5q59 88 120 157h-653z" />
<glyph unicode="8" horiz-adv-x="954" d="M88 391q0 123 51 214t152 143q-92 66 -131 138t-39 179q0 88 30.5 157.5t81 119t114 75t130.5 25.5q72 0 136.5 -25.5t112.5 -75t76.5 -119t28.5 -157.5q0 -106 -40.5 -180t-126.5 -137q104 -59 153 -146.5t49 -210.5q0 -104 -31.5 -182t-85 -128t-124 -75.5 t-148.5 -25.5q-84 0 -154.5 25.5t-123 75.5t-82 128t-29.5 182zM201 395q0 -86 23.5 -145.5t62.5 -95t88 -52t102 -16.5q55 0 105.5 17.5t88.5 54.5t60.5 95t22.5 142q0 72 -21.5 129.5t-58.5 96t-88 59t-109 20.5q-59 0 -109.5 -20.5t-87 -59t-58 -96t-21.5 -129.5z M233 1065q0 -72 18.5 -123t51.5 -84t77 -48t97 -15q102 0 171 62.5t69 207.5q0 131 -71 199.5t-169 68.5q-100 0 -172 -68.5t-72 -199.5z" />
<glyph unicode="9" horiz-adv-x="915" d="M82 961q0 115 28.5 203.5t80 150t121 94.5t149.5 33q180 0 276.5 -166t96.5 -479q0 -227 -25 -384t-73 -253.5t-118.5 -138t-164.5 -41.5q-143 0 -236.5 89t-103.5 273h108q0 -117 61.5 -186.5t161.5 -69.5q72 0 124.5 34t86 108.5t50 192.5t16.5 284 q-41 -121 -116 -171.5t-177 -50.5q-162 0 -254 126t-92 352zM195 963q0 -68 10 -136.5t38.5 -123t81 -89t136.5 -34.5q63 0 111.5 30.5t81 84t50 122t17.5 146.5q0 74 -19.5 140t-53.5 117.5t-80 82t-99 30.5q-70 0 -121 -29.5t-85 -79.5t-51 -118t-17 -143z" />
<glyph unicode=":" horiz-adv-x="507" d="M180 0v160h148v-160h-148zM180 745v158h148v-158h-148z" />
<glyph unicode=";" horiz-adv-x="497" d="M168 0v160h149v-160l-49 -217h-78l37 217h-59zM168 745v158h149v-158h-149z" />
<glyph unicode="&#x3c;" horiz-adv-x="866" d="M100 569v119l666 361v-111l-578 -309l578 -312v-108z" />
<glyph unicode="=" horiz-adv-x="966" d="M100 313v103h766v-103h-766zM100 768v102h766v-102h-766z" />
<glyph unicode="&#x3e;" horiz-adv-x="866" d="M100 209v108l578 312l-578 309v111l666 -361v-119z" />
<glyph unicode="?" horiz-adv-x="800" d="M53 1038v37q0 98 29 167t77 114t108.5 65.5t123.5 20.5q72 0 133.5 -24.5t106.5 -72t70.5 -114t25.5 -152.5q0 -80 -19.5 -137t-49 -102t-63.5 -83t-63.5 -77t-49 -85t-19.5 -108v-53h-117v90q0 63 20.5 109.5t51.5 84.5t65.5 71.5t65.5 73.5t51.5 91.5t20.5 124.5 q0 133 -60.5 193.5t-169.5 60.5q-113 0 -172 -69.5t-59 -225.5h-107zM332 0v160h149v-160h-149z" />
<glyph unicode="@" horiz-adv-x="1351" d="M68 625q0 170 50 315t135 251.5t198.5 167t240.5 60.5q145 0 256 -62.5t185.5 -167t112.5 -241.5t38 -286q0 -106 -19.5 -188.5t-53 -137.5t-79 -84t-94.5 -29q-25 0 -50 6.5t-46.5 22.5t-40 48t-27.5 85q-27 -76 -93 -130t-158 -54q-43 0 -86 13t-77 42t-54.5 73 t-20.5 105q0 59 19.5 103.5t52 73t75.5 44t89 17.5l245 12v86q0 98 -55 153.5t-135 55.5q-49 0 -82 -14.5t-53.5 -39t-30.5 -57t-16 -69.5h-78q12 143 84.5 198.5t187.5 55.5q70 0 120 -28t81 -74t44 -107.5t11 -128.5l-12 -240q0 -80 31.5 -128t80.5 -48q74 0 120 88 t46 275q0 147 -36.5 270t-104.5 212t-164 139t-213 50t-216 -55t-173 -150.5t-115 -224.5t-41 -278q0 -172 42 -299t115 -212t172 -127t216 -42q66 0 139.5 24.5t116.5 65.5l35 -78q-70 -47 -139.5 -73.5t-155.5 -26.5q-139 0 -252.5 56t-195.5 158.5t-127 243t-45 310.5z M469 434q0 -76 39 -119t117 -43q51 0 95 26t76.5 67t51 92t18.5 104v55l-243 -18q-43 -4 -73 -12t-48.5 -25.5t-25.5 -48.5t-7 -78z" />
<glyph unicode="A" horiz-adv-x="1036" d="M8 0l447 1419h123l450 -1419h-113l-114 379h-574l-114 -379h-105zM258 477h514l-256 832z" />
<glyph unicode="B" horiz-adv-x="997" d="M119 0v1419h375q199 0 297 -89t98 -290q0 -106 -46 -190t-118 -133q86 -53 142.5 -129t60.5 -201q-2 -201 -96.5 -294t-286.5 -93h-426zM223 96h328q131 0 198.5 70t67.5 223q0 139 -72.5 208t-193.5 69h-328v-570zM223 762h291q135 0 199.5 63.5t64.5 214.5 q0 141 -70.5 211t-193.5 70h-291v-559z" />
<glyph unicode="C" horiz-adv-x="1044" d="M106 713q0 141 20.5 273t71 233.5t138.5 163t223 61.5q197 0 300.5 -121t119.5 -336h-113q-14 158 -92 252t-213 94q-104 0 -171.5 -51t-106.5 -137t-53.5 -197.5t-14.5 -234.5q0 -115 12.5 -227.5t49 -201.5t106.5 -143.5t186 -54.5q76 0 130.5 26.5t91 76t56 117 t23.5 149.5h111q-14 -231 -116.5 -353t-305.5 -122q-129 0 -216 60t-139 161.5t-75 233.5t-23 278z" />
<glyph unicode="D" horiz-adv-x="1046" d="M119 0v1419h336q252 0 368.5 -179t116.5 -531q0 -158 -23.5 -288t-79 -224.5t-146.5 -145.5t-226 -51h-346zM223 98h223q113 0 188 42t118 121t60 192.5t17 255.5q0 311 -94 461.5t-299 150.5h-213v-1223z" />
<glyph unicode="E" horiz-adv-x="882" d="M119 0v1419h688v-98h-584v-563h551v-94h-551v-566h600v-98h-704z" />
<glyph unicode="F" horiz-adv-x="819" d="M119 0v1419h663v-96h-559v-573h535v-93h-535v-657h-104z" />
<glyph unicode="G" horiz-adv-x="1095" d="M106 711q0 141 20.5 273t71 233.5t138.5 163t223 61.5q197 0 300.5 -120t119.5 -337h-113q-16 160 -85.5 254t-209.5 94q-109 0 -178 -51t-109 -137t-54.5 -198.5t-14.5 -235.5q0 -115 13.5 -227.5t50 -201.5t104.5 -143.5t178 -54.5q96 0 158.5 41t99.5 111.5t51.5 164 t14.5 197.5h-324v107h428v-707h-108v215q-35 -119 -118 -177.5t-210 -58.5t-212 60.5t-137 162t-75 233.5t-23 278z" />
<glyph unicode="H" horiz-adv-x="1040" d="M119 0v1419h104v-639h596v639h103v-1419h-103v682h-596v-682h-104z" />
<glyph unicode="I" horiz-adv-x="358" d="M127 0v1419h104v-1419h-104z" />
<glyph unicode="J" horiz-adv-x="774" d="M43 295h109q8 -51 19 -91t32.5 -67.5t55.5 -42t83 -14.5q74 0 115 24.5t62.5 79t26.5 138.5t5 202v895h104v-915q0 -102 -7 -196.5t-38.5 -167t-94 -116.5t-173.5 -44q-74 0 -127 25.5t-89 68.5t-55.5 100t-27.5 121z" />
<glyph unicode="K" horiz-adv-x="968" d="M119 0v1419h104v-794l598 794h127l-436 -579l467 -840h-119l-416 752l-221 -287v-465h-104z" />
<glyph unicode="L" horiz-adv-x="798" d="M119 0v1419h104v-1321h527v-98h-631z" />
<glyph unicode="M" horiz-adv-x="1294" d="M131 0v1419h143l375 -1239l371 1239h143v-1419h-104v1231l-383 -1231h-58l-382 1231v-1231h-105z" />
<glyph unicode="N" horiz-adv-x="1085" d="M119 0v1419h133l610 -1261v1261h105v-1419h-125l-619 1264v-1264h-104z" />
<glyph unicode="O" horiz-adv-x="1120" d="M106 713q0 141 20.5 272t71 232.5t138.5 163t223 61.5q137 0 225 -61.5t139.5 -163t71 -232.5t19.5 -272q0 -145 -22.5 -277.5t-75 -234t-139.5 -161.5t-218 -60t-218 60t-139 161.5t-74 233.5t-22 278zM217 713q0 -115 13.5 -227.5t51 -201.5t104 -143.5t175.5 -54.5 q106 0 174 54.5t105 143.5t50 201.5t13 227.5q0 123 -14.5 234.5t-52 197.5t-104 137t-171.5 51q-104 0 -170.5 -51t-105.5 -137t-53.5 -197.5t-14.5 -234.5z" />
<glyph unicode="P" horiz-adv-x="964" d="M119 0v1419h370q88 0 161 -22.5t126 -71.5t83 -126t30 -183q0 -115 -29 -193t-80 -126t-121.5 -68.5t-154.5 -20.5h-281v-608h-104zM223 707h291q141 0 202.5 70.5t61.5 238.5q0 160 -70.5 232.5t-193.5 72.5h-291v-614z" />
<glyph unicode="Q" horiz-adv-x="1103" d="M106 713q0 141 20.5 272t71 232.5t138.5 163t223 61.5q137 0 225 -61.5t139.5 -163t71 -232.5t19.5 -272q0 -178 -34 -335t-118 -259l99 -162l-58 -55l-96 159q-49 -39 -109.5 -60t-138.5 -21q-131 0 -218 60t-139 161.5t-74 233.5t-22 278zM217 713q0 -115 13.5 -227.5 t51 -201.5t104 -143.5t175.5 -54.5q59 0 106.5 17.5t84.5 50.5l-164 272l57 53l158 -264q59 92 79.5 224t20.5 274q0 123 -14.5 234.5t-52 197.5t-104 137t-171.5 51q-104 0 -170.5 -51t-105.5 -137t-53.5 -197.5t-14.5 -234.5z" />
<glyph unicode="R" horiz-adv-x="966" d="M119 0v1419h368q88 0 162 -23.5t126 -72.5t81 -124t29 -177q0 -154 -66.5 -260.5t-216.5 -134.5l318 -627h-113l-318 621h-266v-621h-104zM223 719h289q264 0 264 303q0 152 -74.5 225.5t-189.5 73.5h-289v-602z" />
<glyph unicode="S" horiz-adv-x="962" d="M66 424h112q2 -92 27.5 -157.5t68.5 -108.5t99.5 -62.5t124.5 -19.5q49 0 99 17.5t92 54t68.5 91t26.5 128.5q0 78 -18 129t-51 84.5t-79 54t-101 37.5l-152 45q-131 39 -202.5 124t-71.5 242q0 88 28.5 155t77.5 113t117.5 69.5t148.5 23.5q205 0 302.5 -107.5 t97.5 -310.5h-107q-2 180 -75.5 254t-209.5 74q-131 0 -200.5 -72t-69.5 -192q0 -117 53.5 -180.5t171.5 -96.5q37 -10 75 -21.5t75 -21.5q66 -18 122 -51t96 -81t62.5 -112.5t22.5 -150.5q0 -102 -31.5 -177t-87 -123t-128 -71.5t-152.5 -23.5q-92 0 -170 23.5t-134.5 75.5 t-90 137t-37.5 208z" />
<glyph unicode="T" horiz-adv-x="888" d="M16 1321v98h856v-98h-376v-1321h-105v1321h-375z" />
<glyph unicode="U" horiz-adv-x="1054" d="M98 575v844h105v-817q0 -102 11 -196.5t46 -166t99.5 -114.5t168.5 -43q100 0 165 42t100.5 112.5t49 165t13.5 200.5v817h100v-844q0 -137 -23.5 -247.5t-74.5 -187.5t-132 -118.5t-194 -41.5q-129 0 -212.5 47t-133 128t-69 189.5t-19.5 230.5z" />
<glyph unicode="V" horiz-adv-x="993" d="M25 1419h108l367 -1280l362 1280h107l-416 -1419h-111z" />
<glyph unicode="W" horiz-adv-x="1587" d="M27 1419h114l287 -1284l305 1284h127l299 -1284l293 1284h109l-332 -1419h-135l-297 1270l-303 -1270h-136z" />
<glyph unicode="X" horiz-adv-x="972" d="M6 0l414 733l-389 686h133l328 -602l329 602h127l-393 -682l416 -737h-133l-355 643l-350 -643h-127z" />
<glyph unicode="Y" horiz-adv-x="915" d="M0 1419h115l342 -755l344 755h114l-407 -860v-559h-102v559z" />
<glyph unicode="Z" horiz-adv-x="919" d="M49 0v115l705 1206h-672v98h782v-121l-708 -1200h714v-98h-821z" />
<glyph unicode="[" horiz-adv-x="428" d="M174 -340v1878h250v-80h-158v-1720h158v-78h-250z" />
<glyph unicode="\" horiz-adv-x="598" d="M-16 1554h86l544 -1914h-90z" />
<glyph unicode="]" horiz-adv-x="430" d="M4 -262h158v1720h-158v80h252v-1878h-252v78z" />
<glyph unicode="^" horiz-adv-x="786" d="M94 973l256 563h86l256 -563h-98l-201 430l-198 -430h-101z" />
<glyph unicode="_" horiz-adv-x="860" d="M4 -201h852v-75h-852v75z" />
<glyph unicode="`" horiz-adv-x="376" d="M-16 1434l92 71l194 -336l-69 -49z" />
<glyph unicode="a" horiz-adv-x="821" d="M61 264q0 145 76 213t213 74l293 12v123q0 141 -57.5 199.5t-163.5 58.5q-102 0 -152.5 -46t-72.5 -138h-95q6 53 28 101t61.5 85t97 58.5t133.5 21.5q88 0 147.5 -28.5t95 -82t51 -128t15.5 -166.5v-510q0 -23 2 -45q2 -18 3 -37t5 -29h-86q-2 14 -4 33q-2 16 -3 35.5 t-1 42.5v67q-51 -109 -126 -153.5t-165 -44.5q-55 0 -107 15t-94 49t-68 88t-26 132zM156 264q0 -92 60 -147.5t155 -55.5q63 0 114.5 28t86 75t54 109.5t19.5 129.5v76l-276 -14q-104 -4 -158.5 -48t-54.5 -153z" />
<glyph unicode="b" horiz-adv-x="917" d="M111 0v1419h90v-569q57 100 131 138t139 38q98 0 170 -39t119 -107.5t69.5 -165t22.5 -212.5q0 -250 -98.5 -386t-276.5 -136q-31 0 -68.5 8t-76.5 29.5t-75 57.5t-62 91v-166h-84zM201 446q0 -74 15 -143.5t48 -123.5t84 -86t123 -32q78 0 132 36t88 95.5t49.5 139.5 t15.5 168q0 90 -15.5 171t-49.5 141t-88 96t-132 36q-70 0 -120 -30.5t-84 -84t-50 -128t-16 -160.5v-95z" />
<glyph unicode="c" horiz-adv-x="884" d="M70 502q0 117 22.5 213t69.5 164.5t118.5 107.5t172.5 39q145 0 239 -92t117 -256h-102q-29 145 -96.5 205.5t-164.5 60.5q-78 0 -131 -36t-85.5 -96t-48 -141t-15.5 -171q0 -88 15.5 -168t48 -139.5t86 -95.5t130.5 -36q63 0 110.5 24t80.5 66t51.5 97t24.5 119h102 q-53 -387 -362 -387q-193 0 -288 136t-95 386z" />
<glyph unicode="d" horiz-adv-x="921" d="M70 502q0 117 22.5 213t69.5 164.5t118.5 107.5t170.5 39q66 0 139.5 -38t130.5 -138v569h90v-1419h-84v166q-29 -55 -63.5 -91t-73.5 -57.5t-77 -29.5t-69 -8q-178 0 -276 136t-98 386zM166 500q0 -88 15.5 -168t49 -139.5t88 -95.5t132.5 -36q72 0 123 32t83.5 86 t48 124t15.5 143v95q0 86 -16.5 160.5t-50 128t-83.5 84t-120 30.5q-78 0 -132.5 -36t-88 -96t-49 -141t-15.5 -171z" />
<glyph unicode="e" horiz-adv-x="890" d="M70 500q0 268 104.5 397t274.5 129q186 0 279 -135t93 -385v-17h-657q2 -92 19.5 -170.5t51 -135t87 -89.5t131.5 -33q98 0 172.5 75t89.5 231h102q-12 -86 -37.5 -158t-69.5 -123t-107.5 -78.5t-149.5 -27.5q-104 0 -177 38.5t-119 108.5t-66.5 165t-20.5 208zM164 567 h559q-4 80 -21.5 148.5t-50.5 119t-83 80t-119 29.5q-66 0 -117 -29.5t-88 -80t-57.5 -119t-22.5 -148.5z" />
<glyph unicode="f" horiz-adv-x="485" d="M18 924v82h140v194q0 115 50 184.5t142 69.5q27 0 58.5 -4t58.5 -8v-92q-23 4 -46.5 6t-41.5 4h-12q-37 0 -59 -10q-27 -13 -40.5 -38.5t-17.5 -61.5t-4 -79v-165h221v-82h-221v-924h-88v924h-140z" />
<glyph unicode="g" horiz-adv-x="933" d="M70 504q0 250 97 386t277 136q31 0 69 -8t76 -29.5t72.5 -57.5t63.5 -91v166h86v-1026q0 -100 -26.5 -177t-72.5 -128.5t-109.5 -78t-137.5 -26.5q-172 0 -261 71.5t-108 247.5h101q6 -111 68.5 -173t178.5 -62q117 0 197 81t80 240v181q-59 -100 -133 -138t-137 -38 q-98 0 -170 38.5t-119 107.5t-69.5 165t-22.5 213zM166 506q0 -90 15.5 -171t49 -141.5t88 -96.5t132.5 -36q70 0 120 31t83.5 84t50 128t16.5 161v94q0 74 -15.5 143.5t-48 124t-84 86t-122.5 31.5q-78 0 -132.5 -36t-88 -95t-49 -139t-15.5 -168z" />
<glyph unicode="h" d="M123 0v1419h90v-569q57 94 128 136t159 42q156 0 239.5 -101.5t83.5 -269.5v-657h-92v649q0 141 -57.5 218t-184.5 77q-51 0 -100 -26.5t-88 -71.5t-63.5 -102.5t-24.5 -120.5v-623h-90z" />
<glyph unicode="i" horiz-adv-x="362" d="M131 1290v129h100v-129h-100zM137 0v1006h90v-1006h-90z" />
<glyph unicode="j" horiz-adv-x="354" d="M25 -268v-109h28q74 0 120 50.5t46 154.5v1178h-90v-1160q0 -55 -16.5 -84.5t-69.5 -29.5h-18zM123 1290v129h100v-129h-100z" />
<glyph unicode="k" horiz-adv-x="778" d="M111 0v1419h90v-993l444 580h121l-336 -431l348 -575h-108l-303 485l-166 -215v-270h-90z" />
<glyph unicode="l" horiz-adv-x="352" d="M131 0v1419h90v-1419h-90z" />
<glyph unicode="m" horiz-adv-x="1445" d="M131 0v1006h90v-156q57 94 118.5 136t149.5 42q111 0 169.5 -48t84.5 -138q53 113 124 149.5t169 36.5q78 0 131.5 -26.5t86 -74.5t47 -117t14.5 -153v-657h-90v649q0 139 -45 217t-170 78q-47 0 -90 -22.5t-76 -61.5t-52.5 -91t-19.5 -112v-657h-90v649q0 139 -47 217 t-172 78q-51 0 -95 -26.5t-77 -71.5t-51.5 -102.5t-18.5 -120.5v-623h-90z" />
<glyph unicode="n" d="M123 0v1006h90v-156q57 94 128 136t159 42q156 0 239.5 -101.5t83.5 -269.5v-657h-92v649q0 141 -57.5 218t-184.5 77q-51 0 -100 -26.5t-88 -71.5t-63.5 -102.5t-24.5 -120.5v-623h-90z" />
<glyph unicode="o" horiz-adv-x="897" d="M70 502q0 117 22.5 213t69.5 164.5t117.5 107.5t169.5 39q98 0 168.5 -39t117.5 -107.5t69.5 -165t22.5 -212.5q0 -246 -95 -384t-283 -138t-283.5 138t-95.5 384zM166 500q0 -88 15.5 -168t49 -139.5t87 -95.5t131.5 -36q76 0 130 36t87.5 95.5t49 139.5t15.5 168 q0 90 -15.5 171t-49 141t-88 96t-129.5 36q-78 0 -131.5 -36t-87 -96t-49 -141t-15.5 -171z" />
<glyph unicode="p" horiz-adv-x="929" d="M111 -416v1422h84v-166q27 55 62.5 91t74.5 57.5t76.5 29.5t68.5 8q178 0 276.5 -136t98.5 -386q0 -117 -22.5 -213t-69.5 -165t-119 -107.5t-170 -38.5q-66 0 -139.5 37.5t-130.5 138.5v-572h-90zM201 465q0 -86 16 -161t50 -128t84 -84t120 -31q78 0 132 36t88 96.5 t49.5 141.5t15.5 171q0 88 -15.5 168t-49.5 139t-88 95t-132 36q-72 0 -123 -31.5t-84 -86t-48 -124t-15 -143.5v-94z" />
<glyph unicode="q" horiz-adv-x="921" d="M70 504q0 250 98 386t276 136q31 0 69 -8t77 -29.5t73.5 -57.5t63.5 -91v166h84v-1422h-90v572q-57 -100 -131 -138t-139 -38q-98 0 -170 38.5t-119 107.5t-69.5 165t-22.5 213zM166 506q0 -90 15.5 -171t49 -141.5t88 -96.5t132.5 -36q70 0 120 31t83.5 84t50 128 t16.5 161v94q0 74 -15.5 143.5t-48 124t-84 86t-122.5 31.5q-78 0 -132.5 -36t-88 -95t-49 -139t-15.5 -168z" />
<glyph unicode="r" horiz-adv-x="610" d="M123 0v1006h90v-156q45 78 115.5 128t156.5 50q29 0 48.5 -4t35.5 -8v-94q-16 4 -40.5 9t-47.5 5q-53 0 -102 -24.5t-86 -67.5t-58.5 -100.5t-21.5 -125.5v-618h-90z" />
<glyph unicode="s" horiz-adv-x="768" d="M68 283h94q4 -98 56 -160t167 -62q37 0 77 8.5t73.5 32t55 63.5t21.5 103q0 49 -20.5 83t-54 55.5t-78.5 35t-92 23.5q-49 10 -99.5 26.5t-90.5 47t-65.5 78t-25.5 120.5q0 74 23.5 128.5t63.5 90t91 53t107 17.5q61 0 114.5 -16.5t95.5 -52t66.5 -91t28.5 -135.5h-96 q-4 98 -56.5 155.5t-154.5 57.5q-78 0 -132.5 -44t-54.5 -140q0 -57 17.5 -93t48.5 -58.5t72.5 -35t91.5 -22.5q49 -10 101 -24.5t93 -45t67.5 -82t26.5 -135.5q0 -80 -28.5 -135t-73.5 -89t-101.5 -48.5t-109.5 -14.5q-66 0 -124 20.5t-101 58.5t-68.5 95.5t-25.5 131.5z " />
<glyph unicode="t" horiz-adv-x="489" d="M31 924v82h121v294h92v-294h196v-82h-196v-666q0 -47 3 -81t15 -55.5t34.5 -31.5t61.5 -10q16 0 40 4t40 8v-92q-31 -8 -57.5 -10t-61.5 -2q-33 0 -63.5 10t-53 35.5t-36.5 66.5t-14 103v721h-121z" />
<glyph unicode="u" d="M123 348v658h92v-650q0 -141 65.5 -218t192.5 -77q51 0 98 27t83 71t57.5 102t21.5 122v623h90v-1006h-90v156q-57 -94 -127.5 -136.5t-159.5 -42.5q-156 0 -239.5 101.5t-83.5 269.5z" />
<glyph unicode="v" horiz-adv-x="794" d="M18 1006h95l282 -904l287 904h94l-327 -1006h-111z" />
<glyph unicode="w" horiz-adv-x="1230" d="M25 1006h94l219 -875l237 875h82l236 -875l219 875h94l-272 -1006h-78l-240 877l-241 -877h-78z" />
<glyph unicode="x" horiz-adv-x="778" d="M16 0l316 522l-295 484h104l248 -416l248 416h104l-292 -484l313 -522h-105l-268 453l-268 -453h-105z" />
<glyph unicode="y" horiz-adv-x="796" d="M18 1006h95l284 -904l287 904h94l-389 -1194q-29 -90 -75 -146.5t-121 -56.5q-39 0 -64 10q-12 4 -23 10v78q10 -2 19 -4q8 -2 16.5 -4t18.5 -2q8 -1 15 -1q31 0 55 14q30 18 50.5 49.5t33 71.5t22.5 81l12 53z" />
<glyph unicode="z" horiz-adv-x="776" d="M66 0v96l561 819h-533v91h631v-99l-561 -817h563v-90h-661z" />
<glyph unicode="{" horiz-adv-x="507" d="M72 557v86h45q47 0 75.5 13.5t44 40t19.5 65.5t4 90v446q0 127 49 183.5t148 56.5h63v-80h-35q-86 0 -115.5 -48t-29.5 -142v-475q0 -29 -4 -61t-16.5 -60.5t-37 -49t-63.5 -28.5q80 -33 100.5 -86t20.5 -111v-467q0 -96 29.5 -144t115.5 -48h35v-78h-63 q-98 0 -147.5 56.5t-49.5 183.5v448q0 51 -4 90t-19.5 65.5t-44 40t-75.5 13.5h-45z" />
<glyph unicode="|" horiz-adv-x="436" d="M180 -340v1878h76v-1878h-76z" />
<glyph unicode="}" horiz-adv-x="505" d="M-12 -262h35q86 0 115.5 48t29.5 144v467q0 29 4 56.5t16.5 54.5t36 48.5t64.5 37.5q-41 8 -64.5 28.5t-36 49t-16.5 60.5t-4 61v475q0 94 -29.5 142t-115.5 48h-35v80h61q98 0 147.5 -56.5t49.5 -183.5v-446q0 -51 4 -90t19.5 -65.5t44 -40t77.5 -13.5h43v-86h-43 q-49 0 -77.5 -13.5t-44 -40t-19.5 -65.5t-4 -90v-448q0 -127 -49.5 -183.5t-147.5 -56.5h-61v78z" />
<glyph unicode="~" horiz-adv-x="1140" d="M145 606q53 53 113.5 89t126.5 36q51 0 97 -19.5t91 -42t90.5 -42t94.5 -19.5q57 0 103 28t77 62l57 -67q-51 -57 -107.5 -92t-129.5 -35q-51 0 -97.5 19.5t-91.5 43t-91 43t-95 19.5q-59 0 -102 -27t-80 -65z" />
<glyph unicode="&#xa1;" horiz-adv-x="493" d="M180 858v148h133v-148h-133zM182 -57l29 628h72l28 -628v-357h-129v357z" />
<glyph unicode="&#xa2;" horiz-adv-x="1024" d="M139 694q0 111 19.5 204t61.5 161.5t107.5 109.5t157.5 48v227h70v-227q133 -10 218 -100.5t106 -246.5h-103q-27 133 -82 193.5t-139 71.5v-879q109 12 162 98t65 205h103q-49 -369 -330 -387v-192h-70v192q-178 12 -262 147.5t-84 374.5zM236 692q0 -84 13 -160.5 t43 -136t77 -97.5t116 -44v881q-70 -6 -116.5 -44t-76.5 -97.5t-43 -137.5t-13 -164z" />
<glyph unicode="&#xa3;" horiz-adv-x="876" d="M45 0v98h131v598h-100v80h100v254q0 90 23.5 166t64.5 130t99.5 85t128.5 31q66 0 123 -25.5t100 -71t67.5 -105.5t24.5 -128h-96q0 45 -15.5 85t-44 70.5t-68.5 48t-91 17.5q-104 0 -162 -74.5t-58 -222.5v-260h263v-80h-263v-598h279q51 0 85 14.5t54.5 40t29.5 61.5 t15 77l96 -21q-16 -133 -80.5 -201.5t-164.5 -68.5h-541z" />
<glyph unicode="&#xa4;" horiz-adv-x="888" d="M45 1090l55 69l123 -155q47 47 106.5 70.5t116.5 23.5q55 0 112.5 -22.5t98.5 -69.5l131 155l56 -69l-125 -154q39 -61 55.5 -133t16.5 -141q0 -68 -17.5 -138.5t-54.5 -134.5l125 -153l-56 -70l-131 156q-98 -90 -211 -91q-59 0 -116.5 21.5t-106.5 71.5l-121 -156 l-55 70l127 155q-37 61 -54.5 130t-17.5 139t16.5 137t53.5 133zM193 664q0 -70 18 -132.5t52 -108.5t81 -72.5t102 -26.5t101.5 26.5t80.5 72.5t52 108.5t18 132.5q0 72 -18 134t-52 109t-80 74t-102 27q-55 0 -102 -27t-81 -74t-52 -109t-18 -134z" />
<glyph unicode="&#xa5;" horiz-adv-x="985" d="M35 1419h115l329 -727h27l330 727h114l-344 -727h238v-94h-281l-18 -39v-184h299v-94h-299v-281h-103v281h-299v94h299v184l-18 39h-281v94h236z" />
<glyph unicode="&#xa6;" horiz-adv-x="436" d="M180 -340v825h76v-825h-76zM180 713v825h76v-825h-76z" />
<glyph unicode="&#xa7;" horiz-adv-x="790" d="M76 780q0 72 42 137.5t95 112.5q-45 55 -67.5 108.5t-22.5 116.5q0 68 23.5 116t61.5 78t87 43t100 13q131 0 202 -79.5t71 -217.5h-76q0 51 -18.5 91t-46 69t-63.5 44t-69 15q-90 0 -140 -43t-50 -129q0 -70 38 -117.5t94 -86.5t122.5 -74t123 -80t94.5 -106.5 t38 -149.5q0 -78 -37 -137.5t-94 -108.5q49 -53 69.5 -107.5t20.5 -115.5q0 -68 -25.5 -117t-65.5 -82.5t-89.5 -50t-98.5 -16.5q-59 0 -116.5 17.5t-102.5 57t-71.5 101t-26.5 151.5h84q0 -106 61.5 -176.5t171.5 -70.5q35 0 69 10t60.5 32.5t43 58.5t16.5 85q0 72 -38 122 t-94.5 90t-122 75t-121.5 79t-94 101t-38 141zM164 797q0 -68 43 -122t102.5 -98.5t118.5 -79t94 -63.5q49 47 83 95.5t34 111.5q0 51 -23.5 90t-69.5 78t-111.5 81t-149.5 97q-59 -41 -90 -84t-31 -106z" />
<glyph unicode="&#xa8;" horiz-adv-x="344" d="M-20 1108v123h100v-123h-100zM262 1108v123h103v-123h-103z" />
<glyph unicode="&#xa9;" horiz-adv-x="1536" d="M68 709q0 162 52 296t145 231t223 150.5t284 53.5q166 0 295 -55.5t218 -153.5t136 -232t47 -290q-4 -160 -53 -295t-138 -232.5t-217 -152t-288 -54.5t-290 58.5t-222 158t-142 232.5t-50 285zM166 709q0 -137 45 -256t125 -206t191.5 -136.5t244.5 -49.5 q139 0 250 54.5t188.5 143.5t119.5 206t42 244q0 135 -43 252.5t-122 204.5t-189.5 138.5t-245.5 51.5q-141 -6 -252.5 -58.5t-190.5 -139.5t-121 -202.5t-42 -246.5zM414 711q0 86 21.5 157.5t66.5 123.5t112.5 82t159.5 30q150 0 241 -67.5t109 -190.5h-94 q-10 78 -72.5 131t-183.5 53q-72 0 -122 -25.5t-80.5 -70.5t-45 -103.5t-14.5 -121.5t14.5 -120t46 -98.5t82 -66.5t121.5 -25q127 0 189.5 57.5t70.5 153.5h97q-10 -61 -33 -115.5t-65 -94.5t-105.5 -63.5t-153.5 -23.5q-176 0 -269 104.5t-93 293.5z" />
<glyph unicode="&#xaa;" horiz-adv-x="421" d="M14 915q0 49 16.5 80t42 50.5t56.5 27.5t59 10h125q0 84 -19.5 120t-76.5 36q-49 0 -65.5 -22.5t-24.5 -67.5h-92q0 33 13 63.5t37 55t58.5 40t79.5 15.5q100 0 139 -62.5t39 -164.5v-265v-33.5t2 -23.5t5 -18h-80q-2 2 -4 10t-2 41v20q-23 -37 -52.5 -57t-79.5 -20 q-74 0 -125 39.5t-51 125.5zM102 926q0 -35 18.5 -59.5t69.5 -24.5q74 0 101.5 30.5t27.5 108.5v37h-98q-43 0 -81 -17.5t-38 -74.5z" />
<glyph unicode="&#xab;" horiz-adv-x="999" d="M121 502l262 463h106l-262 -463l260 -457h-106zM510 502l262 463h107l-263 -463l263 -457h-107z" />
<glyph unicode="&#xac;" horiz-adv-x="870" d="M100 618v95h670v-512h-90v417h-580z" />
<glyph unicode="&#xad;" horiz-adv-x="739" d="M123 557v94h493v-94h-493z" />
<glyph unicode="&#xae;" horiz-adv-x="1085" d="M106 1075q0 96 28 181t83 147.5t136 99.5t188 37q109 0 190.5 -37t137 -99.5t83 -147.5t27.5 -181q0 -98 -27.5 -182t-83 -146.5t-137.5 -98.5t-190 -36q-106 0 -187.5 36t-136.5 98.5t-83 146.5t-28 182zM168 1075q0 -84 23.5 -157.5t69.5 -129t117 -87t163 -31.5 q94 0 164.5 31.5t117.5 87t71 129t24 157.5q0 82 -24 156t-71 129t-117.5 87t-164.5 32q-92 0 -163 -32t-117 -87t-69.5 -129t-23.5 -156zM350 811v530h178q82 0 138.5 -36.5t56.5 -126.5q0 -59 -32 -99.5t-93 -50.5l139 -217h-80l-131 207h-108v-207h-68zM418 1079h129 q59 0 84.5 28t25.5 81q0 41 -25.5 65.5t-84.5 24.5h-129v-199z" />
<glyph unicode="&#xb0;" horiz-adv-x="724" d="M121 1096q0 68 19.5 123t52 96t76.5 63.5t93 22.5t93.5 -23.5t77 -64.5t52 -96.5t19.5 -120.5q0 -66 -19.5 -121t-52 -95t-76.5 -63.5t-94 -23.5q-49 0 -93 23.5t-76.5 63.5t-52 95t-19.5 121zM205 1096q0 -88 46 -145.5t111 -57.5q66 0 112 57.5t46 145.5q0 90 -46 147 t-112 57t-111.5 -56t-45.5 -148z" />
<glyph unicode="&#xb1;" horiz-adv-x="919" d="M100 637v94h318v361h86v-361h315v-94h-315v-356h-86v356h-318zM123 0v94h680v-94h-680z" />
<glyph unicode="&#xb2;" horiz-adv-x="548" d="M53 715v63q0 82 26.5 137.5t67.5 96.5t88.5 72.5t88.5 65.5t67.5 75t26.5 98q0 80 -40 123t-102 43q-39 0 -65.5 -16.5t-43.5 -42t-24.5 -57.5t-7.5 -64h-74q-2 104 57.5 171.5t157.5 67.5q94 0 151.5 -59t57.5 -156q0 -76 -26.5 -127t-66.5 -91t-86 -71.5t-86 -67.5 t-66.5 -81t-26.5 -109h369v-71h-443z" />
<glyph unicode="&#xb3;" horiz-adv-x="555" d="M45 950h66q0 -84 52 -129t120 -45t111.5 43t43.5 115q0 98 -49 135t-145 37v70q98 0 137 37.5t39 115.5q0 66 -31 111t-102 45q-72 0 -108 -45t-38 -125h-78q0 61 18.5 106t48.5 75t70 44t83 14q92 0 150.5 -57t58.5 -168q0 -82 -32 -122t-85 -62q72 -29 103.5 -76 t31.5 -125q0 -47 -16.5 -90t-45 -77t-71.5 -53t-94 -19q-98 0 -168 64.5t-70 180.5z" />
<glyph unicode="&#xb4;" horiz-adv-x="409" d="M106 1587l254 283l66 -88l-270 -254z" />
<glyph unicode="&#xb5;" d="M123 -416v1422h92v-650q0 -141 65.5 -218t192.5 -77q51 0 98 27t83 71t57.5 102t21.5 122v623h90v-1006h-90v156q-57 -94 -127.5 -136.5t-159.5 -42.5q-78 0 -135 27t-98 76v-496h-90z" />
<glyph unicode="&#xb6;" horiz-adv-x="1019" d="M66 1034q0 78 18 148.5t53 123t85.5 83t113.5 30.5h516v-129h-127v-1560h-104v1554h-183v-1554h-102v929q-66 2 -117 33t-85 82t-51 117.5t-17 142.5z" />
<glyph unicode="&#xb8;" horiz-adv-x="251" d="M8 -233l47 36q27 -57 72 -57q39 0 57.5 28.5t18.5 69.5q0 43 -21.5 68t-54.5 25q-23 0 -37 -8.5t-24 -18.5l-48 43l54 149h75l-41 -112q6 4 17.5 7t32.5 3q51 0 82.5 -45t31.5 -111q0 -168 -143 -168q-47 0 -75.5 28t-43.5 63z" />
<glyph unicode="&#xb9;" horiz-adv-x="507" d="M78 1352v45q55 0 94 33.5t39 103.5h59v-819h-65v637h-127z" />
<glyph unicode="&#xba;" horiz-adv-x="471" d="M23 1137q0 127 54.5 204.5t158.5 77.5t158.5 -77.5t54.5 -204.5q0 -141 -57.5 -214t-155.5 -73t-155.5 72.5t-57.5 214.5zM92 1137q0 -88 34 -151.5t110 -63.5q74 0 107.5 63.5t33.5 151.5q0 41 -8.5 79.5t-25.5 68.5t-43.5 47.5t-63.5 17.5q-39 0 -66 -17.5t-44 -47.5 t-25.5 -68.5t-8.5 -79.5z" />
<glyph unicode="&#xbb;" horiz-adv-x="999" d="M121 965h106l262 -461l-260 -459h-106l260 459zM508 965h106l265 -461l-261 -459h-106l260 459z" />
<glyph unicode="&#xbc;" horiz-adv-x="1200" d="M78 1223v49q55 0 94 32.5t39 104.5h65v-825h-71v639h-127zM158 -35l686 1528l74 -43l-691 -1530zM629 147v72l305 606h94v-608h66v-70h-66v-147h-74v147h-325zM702 217h252v522z" />
<glyph unicode="&#xbd;" horiz-adv-x="1187" d="M78 1223v49q55 0 94 32.5t39 104.5h65v-825h-71v639h-127zM158 -37l688 1528l74 -41l-693 -1530zM668 0v63q0 86 26.5 143.5t65.5 97.5t86 68.5t86 60.5t65.5 74t26.5 105q0 78 -38 116t-99 38q-72 0 -104.5 -51t-32.5 -121h-74q0 104 57.5 172t155.5 68 q90 0 150.5 -58.5t60.5 -150.5q0 -84 -25.5 -136.5t-64.5 -89.5t-84 -65.5t-84 -62t-65.5 -80t-26.5 -117.5h360v-74h-442z" />
<glyph unicode="&#xbe;" horiz-adv-x="1357" d="M45 811h74q0 -47 14 -80t37 -52.5t51.5 -28.5t59.5 -9q78 0 116.5 47t38.5 113q0 168 -192 168v63q92 0 132 48t40 120q0 25 -7.5 49.5t-22.5 44t-41 32.5t-60 13q-72 0 -109 -46t-37 -117h-76q0 115 62.5 177t155.5 62q53 0 93 -18.5t65.5 -48t39 -68.5t13.5 -80 q0 -59 -25 -106t-86 -86q70 -39 99.5 -89.5t29.5 -117.5q0 -41 -14.5 -83t-44 -76t-72.5 -55.5t-98 -21.5q-45 0 -88 16.5t-76 47t-52.5 77t-19.5 105.5zM319 -35l689 1528l77 -43l-692 -1530zM786 147v72l306 606h92v-608h67v-70h-67v-147h-72v147h-326zM860 217h252v522z " />
<glyph unicode="&#xbf;" horiz-adv-x="800" d="M74 -74q0 80 19.5 137.5t49 102.5t63.5 83t63.5 77t49 85t19.5 107v53h117v-90q0 -66 -20.5 -110.5t-51.5 -82.5t-65.5 -72t-65.5 -74t-51.5 -92t-20.5 -124q0 -133 60.5 -193.5t169.5 -60.5q113 0 172 70t59 225h107v-37q0 -98 -30 -166.5t-77 -113.5t-107.5 -65.5 t-123.5 -20.5q-72 0 -133.5 24.5t-106.5 71.5t-70.5 113.5t-25.5 152.5zM319 846v160h150v-160h-150z" />
<glyph unicode="&#xc0;" horiz-adv-x="1024" d="M2 0l447 1419h122l451 -1419h-113l-114 379h-574l-115 -379h-104zM252 477h514l-256 832zM348 1798l60 84l215 -260l-39 -55z" />
<glyph unicode="&#xc1;" horiz-adv-x="1024" d="M2 0l447 1419h122l451 -1419h-113l-114 379h-574l-115 -379h-104zM252 477h514l-256 832zM403 1620l218 256l59 -84l-238 -231z" />
<glyph unicode="&#xc2;" horiz-adv-x="1024" d="M2 0l447 1419h122l451 -1419h-113l-114 379h-574l-115 -379h-104zM252 477h514l-256 832zM293 1595l184 211h64l186 -211l-45 -61l-172 201l-174 -199z" />
<glyph unicode="&#xc3;" horiz-adv-x="1024" d="M2 0l447 1419h122l451 -1419h-113l-114 379h-574l-115 -379h-104zM250 1581q8 37 25.5 62.5t39 42t45 23.5t41.5 7q39 0 67 -14t52.5 -31.5t48 -32t54.5 -14.5q25 0 52 12.5t46 55.5h55q-16 -66 -60 -101t-93 -35q-37 0 -64 14.5t-51.5 32t-49 32t-57.5 14.5 q-29 0 -51 -12.5t-45 -55.5h-55zM252 477h514l-256 832z" />
<glyph unicode="&#xc4;" horiz-adv-x="1024" d="M2 0l447 1419h122l451 -1419h-113l-114 379h-574l-115 -379h-104zM252 477h514l-256 832zM281 1556v140h98v-140h-98zM643 1556v140h98v-140h-98z" />
<glyph unicode="&#xc5;" horiz-adv-x="1024" d="M2 0l428 1360q-41 29 -65.5 79t-24.5 111q0 43 13.5 82t37 69t54 46t65.5 16q72 0 121 -62.5t49 -150.5q0 -61 -24.5 -111t-65.5 -79l432 -1360h-113l-114 379h-574l-115 -379h-104zM252 477h514l-256 832zM406 1550q0 -53 30.5 -92t73.5 -39h8q41 4 68.5 41t27.5 90 t-30.5 92t-73.5 39t-73.5 -39t-30.5 -92z" />
<glyph unicode="&#xc6;" horiz-adv-x="1282" d="M-12 0l532 1419h705v-98h-535v-563h500v-96h-500v-564h551v-98h-657v412h-336l-148 -412h-112zM272 502h312v817z" />
<glyph unicode="&#xc7;" horiz-adv-x="1044" d="M106 713q0 141 20.5 273t71 233.5t138.5 163t223 61.5q197 0 300.5 -121t119.5 -336h-113q-14 158 -92 252t-213 94q-104 0 -171.5 -51t-106.5 -137t-53.5 -197.5t-14.5 -234.5q0 -115 12.5 -227.5t49 -201.5t106.5 -143.5t186 -54.5q76 0 130.5 26.5t91 76t56 117 t23.5 149.5h111q-14 -217 -103.5 -337t-265.5 -136l-22 -84q6 4 17 7t32 3q51 0 83 -45t32 -111q0 -168 -144 -168q-47 0 -75.5 28t-42.5 62l47 37q27 -57 71 -57q39 0 57.5 28.5t18.5 69.5q0 43 -21.5 67.5t-54.5 24.5q-23 0 -37 -8t-24 -18l-47 43l35 121 q-123 6 -206 67.5t-133.5 161.5t-71 230t-20.5 272z" />
<glyph unicode="&#xc8;" horiz-adv-x="878" d="M119 0v1419h688v-98h-584v-563h551v-94h-551v-566h600v-98h-704zM283 1798l59 84l217 -260l-39 -55z" />
<glyph unicode="&#xc9;" horiz-adv-x="878" d="M119 0v1419h688v-98h-584v-563h551v-94h-551v-566h600v-98h-704zM350 1620l217 256l60 -84l-238 -231z" />
<glyph unicode="&#xca;" horiz-adv-x="878" d="M119 0v1419h688v-98h-584v-563h551v-94h-551v-566h600v-98h-704zM252 1595l186 211h64l184 -211l-43 -61l-172 201l-176 -199z" />
<glyph unicode="&#xcb;" horiz-adv-x="882" d="M123 0v1419h688v-98h-584v-563h551v-94h-551v-566h600v-98h-704zM238 1556v140h98v-140h-98zM598 1556v140h98v-140h-98z" />
<glyph unicode="&#xcc;" horiz-adv-x="362" d="M-18 1798l59 84l217 -260l-39 -55zM106 0v1419h105v-1419h-105z" />
<glyph unicode="&#xcd;" horiz-adv-x="360" d="M104 1671q59 72 109.5 130.5t110.5 125.5l55 -84l-234 -231q-14 23 -21 32t-20 27zM123 0v1419h104v-1419h-104z" />
<glyph unicode="&#xce;" horiz-adv-x="303" d="M-66 1595l187 211h63l185 -211l-43 -61l-172 201l-177 -199zM100 0v1419h105v-1419h-105z" />
<glyph unicode="&#xcf;" horiz-adv-x="415" d="M-23 1556v140h99v-140h-99zM158 0v1419h104v-1419h-104zM340 1556v140h98v-140h-98z" />
<glyph unicode="&#xd0;" horiz-adv-x="1069" d="M49 707v84h92v628h338q252 0 368 -178t116 -532q0 -158 -24 -288t-79 -224.5t-146 -145.5t-227 -51h-346v707h-92zM246 98h223q113 0 187.5 42t117.5 121t60.5 192.5t17.5 255.5q0 311 -94 461.5t-299 150.5h-213v-530h286v-84h-286v-609z" />
<glyph unicode="&#xd1;" horiz-adv-x="1085" d="M119 0v1419h133l610 -1261v1261h105v-1419h-125l-619 1264v-1264h-104zM287 1581q8 37 26.5 62.5t40 42t44 23.5t40.5 7q39 0 66.5 -14t52.5 -31.5t48.5 -32t53.5 -14.5q27 0 53.5 12.5t45.5 55.5h55q-16 -66 -60 -101t-91 -35q-37 0 -65 14.5t-52.5 32t-49 32 t-55.5 14.5q-29 0 -52 -12.5t-46 -55.5h-55z" />
<glyph unicode="&#xd2;" horiz-adv-x="1120" d="M106 713q0 -145 22 -277.5t74 -234t139 -161.5t218 -60t218 60t139.5 161.5t75 233.5t22.5 278q0 141 -19.5 272t-71 232.5t-139.5 163t-225 61.5q-135 0 -223 -61.5t-138.5 -163t-71 -232.5t-20.5 -272zM217 713q0 123 14.5 234.5t53.5 197.5t105.5 137t170.5 51 t171 -51t104.5 -137t52 -197.5t14.5 -234.5q0 -115 -13 -227.5t-50 -201.5t-105 -143.5t-174 -54.5q-109 0 -175.5 54.5t-104 143.5t-51 201.5t-13.5 227.5zM385 1798l59 84l218 -260l-41 -55z" />
<glyph unicode="&#xd3;" horiz-adv-x="1120" d="M106 713q0 -145 22 -277.5t74 -234t139 -161.5t218 -60t218 60t139.5 161.5t75 233.5t22.5 278q0 141 -19.5 272t-71 232.5t-139.5 163t-225 61.5q-135 0 -223 -61.5t-138.5 -163t-71 -232.5t-20.5 -272zM217 713q0 123 14.5 234.5t53.5 197.5t105.5 137t170.5 51 t171 -51t104.5 -137t52 -197.5t14.5 -234.5q0 -115 -13 -227.5t-50 -201.5t-105 -143.5t-174 -54.5q-109 0 -175.5 54.5t-104 143.5t-51 201.5t-13.5 227.5zM436 1620l217 256l60 -84l-238 -231z" />
<glyph unicode="&#xd4;" horiz-adv-x="1120" d="M106 713q0 -145 22 -277.5t74 -234t139 -161.5t218 -60t218 60t139.5 161.5t75 233.5t22.5 278q0 141 -19.5 272t-71 232.5t-139.5 163t-225 61.5q-135 0 -223 -61.5t-138.5 -163t-71 -232.5t-20.5 -272zM217 713q0 123 14.5 234.5t53.5 197.5t105.5 137t170.5 51 t171 -51t104.5 -137t52 -197.5t14.5 -234.5q0 -115 -13 -227.5t-50 -201.5t-105 -143.5t-174 -54.5q-109 0 -175.5 54.5t-104 143.5t-51 201.5t-13.5 227.5zM342 1595l186 211h64l184 -211l-43 -61l-172 201l-176 -199z" />
<glyph unicode="&#xd5;" horiz-adv-x="1120" d="M106 713q0 -145 22 -277.5t74 -234t139 -161.5t218 -60t218 60t139.5 161.5t75 233.5t22.5 278q0 141 -19.5 272t-71 232.5t-139.5 163t-225 61.5q-135 0 -223 -61.5t-138.5 -163t-71 -232.5t-20.5 -272zM217 713q0 123 14.5 234.5t53.5 197.5t105.5 137t170.5 51 t171 -51t104.5 -137t52 -197.5t14.5 -234.5q0 -115 -13 -227.5t-50 -201.5t-105 -143.5t-174 -54.5q-109 0 -175.5 54.5t-104 143.5t-51 201.5t-13.5 227.5zM293 1581q8 37 25.5 62.5t39 42t44 23.5t40.5 7q39 0 67 -14t52.5 -31.5t48 -32t54.5 -14.5q27 0 53 12.5t45 55.5 h55q-16 -66 -60 -101t-91 -35q-37 0 -64 14.5t-51.5 32t-49 32t-57.5 14.5q-29 0 -52 -12.5t-44 -55.5h-55z" />
<glyph unicode="&#xd6;" horiz-adv-x="1120" d="M106 713q0 -145 22 -277.5t74 -234t139 -161.5t218 -60t218 60t139.5 161.5t75 233.5t22.5 278q0 141 -19.5 272t-71 232.5t-139.5 163t-225 61.5q-135 0 -223 -61.5t-138.5 -163t-71 -232.5t-20.5 -272zM217 713q0 123 14.5 234.5t53.5 197.5t105.5 137t170.5 51 t171 -51t104.5 -137t52 -197.5t14.5 -234.5q0 -115 -13 -227.5t-50 -201.5t-105 -143.5t-174 -54.5q-109 0 -175.5 54.5t-104 143.5t-51 201.5t-13.5 227.5zM332 1556v140h98v-140h-98zM694 1556v140h99v-140h-99z" />
<glyph unicode="&#xd7;" horiz-adv-x="923" d="M156 309l252 303l-252 299l55 70l252 -301l248 301l57 -70l-252 -299l252 -303l-57 -69l-250 303l-250 -301z" />
<glyph unicode="&#xd8;" horiz-adv-x="1120" d="M106 713q0 141 20.5 272t71 232.5t138.5 163t223 61.5q109 0 191 -41l43 121h90l-62 -170q55 -49 92 -118t59.5 -153t32 -177t9.5 -191q0 -145 -22.5 -277.5t-75 -234t-139.5 -161.5t-218 -60q-61 0 -113.5 14t-95.5 39l-45 -127h-90l66 184q-49 49 -82 117.5 t-53.5 148.5t-30 170t-9.5 187zM217 713q0 -143 20.5 -277.5t84.5 -226.5l389 1085q-66 39 -150 39q-104 0 -170.5 -51t-105.5 -137t-53.5 -197.5t-14.5 -234.5zM389 137q70 -51 172 -51q106 0 174 54.5t105 143.5t50 201.5t13 227.5q0 160 -25.5 298t-97.5 224z" />
<glyph unicode="&#xd9;" horiz-adv-x="1054" d="M98 575v844h105v-817q0 -102 11 -196.5t46 -166t99.5 -114.5t168.5 -43q100 0 165 42t100.5 112.5t49 165t13.5 200.5v817h100v-844q0 -137 -23.5 -247.5t-74.5 -187.5t-132 -118.5t-194 -41.5q-129 0 -212.5 47t-133 128t-69 189.5t-19.5 230.5zM369 1798l59 84 l215 -260l-39 -55z" />
<glyph unicode="&#xda;" horiz-adv-x="1054" d="M98 575v844h105v-817q0 -102 11 -196.5t46 -166t99.5 -114.5t168.5 -43q100 0 165 42t100.5 112.5t49 165t13.5 200.5v817h100v-844q0 -137 -23.5 -247.5t-74.5 -187.5t-132 -118.5t-194 -41.5q-129 0 -212.5 47t-133 128t-69 189.5t-19.5 230.5zM399 1620l217 256 l60 -84l-238 -231z" />
<glyph unicode="&#xdb;" horiz-adv-x="1054" d="M98 575v844h105v-817q0 -102 11 -196.5t46 -166t99.5 -114.5t168.5 -43q100 0 165 42t100.5 112.5t49 165t13.5 200.5v817h100v-844q0 -137 -23.5 -247.5t-74.5 -187.5t-132 -118.5t-194 -41.5q-129 0 -212.5 47t-133 128t-69 189.5t-19.5 230.5zM315 1595l187 211h63 l185 -211l-43 -61l-172 201l-177 -199z" />
<glyph unicode="&#xdc;" horiz-adv-x="1054" d="M98 575v844h105v-817q0 -102 11 -196.5t46 -166t99.5 -114.5t168.5 -43q100 0 165 42t100.5 112.5t49 165t13.5 200.5v817h100v-844q0 -137 -23.5 -247.5t-74.5 -187.5t-132 -118.5t-194 -41.5q-129 0 -212.5 47t-133 128t-69 189.5t-19.5 230.5zM295 1556v140h98v-140 h-98zM657 1556v140h99v-140h-99z" />
<glyph unicode="&#xdd;" horiz-adv-x="911" d="M-2 1419h115l342 -755l344 755h114l-407 -860v-559h-103v559zM340 1620l215 256l61 -84l-237 -231z" />
<glyph unicode="&#xde;" horiz-adv-x="933" d="M119 0v1419h110v-258h224q88 0 161.5 -23.5t128 -73.5t85 -128t30.5 -184q0 -117 -32.5 -196t-88 -127t-129 -67.5t-155.5 -19.5h-224v-342h-110zM229 449h252q131 8 197.5 73.5t66.5 229.5q0 76 -21.5 132t-57 94t-83.5 57.5t-102 19.5h-252v-606z" />
<glyph unicode="&#xdf;" horiz-adv-x="1028" d="M111 786v84h112v164q0 205 80 306.5t258 101.5q162 0 244 -97.5t82 -257.5q0 -98 -36 -172.5t-110 -97.5q55 -12 97.5 -48t70 -87t41 -113.5t13.5 -128.5q0 -102 -22.5 -187t-66 -146.5t-108 -95.5t-145.5 -34q-51 0 -97 11q-23 6 -47 12v90q12 -6 31 -10q16 -4 36.5 -6 t47.5 -2q59 0 108.5 19.5t84 63.5t54 113.5t19.5 171.5q0 346 -297 346h-35v84h35q94 0 156.5 51.5t62.5 165.5q0 123 -45 191t-174 68q-76 0 -123 -23t-72.5 -64.5t-33.5 -100t-8 -130.5v-1028h-101v786h-112z" />
<glyph unicode="&#xe0;" horiz-adv-x="821" d="M61 264q0 145 76 213t213 74l293 12v123q0 141 -57.5 199.5t-163.5 58.5q-102 0 -152.5 -46t-72.5 -138h-95q6 53 28 101t61.5 85t97 58.5t133.5 21.5q88 0 147.5 -28.5t95 -82t51 -128t15.5 -166.5v-510q0 -23 2 -45q2 -18 3 -37t5 -29h-86q-2 14 -4 33q-2 16 -3 35.5 t-1 42.5v67q-51 -109 -126 -153.5t-165 -44.5q-55 0 -107 15t-94 49t-68 88t-26 132zM156 264q0 -92 60 -147.5t155 -55.5q63 0 114.5 28t86 75t54 109.5t19.5 129.5v76l-276 -14q-104 -4 -158.5 -48t-54.5 -153zM330 1417l73 68l170 -301l-43 -47z" />
<glyph unicode="&#xe1;" horiz-adv-x="821" d="M61 264q0 145 76 213t213 74l293 12v123q0 141 -57.5 199.5t-163.5 58.5q-102 0 -152.5 -46t-72.5 -138h-95q6 53 28 101t61.5 85t97 58.5t133.5 21.5q88 0 147.5 -28.5t95 -82t51 -128t15.5 -166.5v-510q0 -23 2 -45q2 -18 3 -37t5 -29h-86q-2 14 -4 33q-2 16 -3 35.5 t-1 42.5v67q-51 -109 -126 -153.5t-165 -44.5q-55 0 -107 15t-94 49t-68 88t-26 132zM156 264q0 -92 60 -147.5t155 -55.5q63 0 114.5 28t86 75t54 109.5t19.5 129.5v76l-276 -14q-104 -4 -158.5 -48t-54.5 -153zM387 1200l172 299l72 -69l-195 -279z" />
<glyph unicode="&#xe2;" horiz-adv-x="821" d="M61 264q0 145 76 213t213 74l293 12v123q0 141 -57.5 199.5t-163.5 58.5q-102 0 -152.5 -46t-72.5 -138h-95q6 53 28 101t61.5 85t97 58.5t133.5 21.5q88 0 147.5 -28.5t95 -82t51 -128t15.5 -166.5v-510q0 -23 2 -45q2 -18 3 -37t5 -29h-86q-2 14 -4 33q-2 16 -3 35.5 t-1 42.5v67q-51 -109 -126 -153.5t-165 -44.5q-55 0 -107 15t-94 49t-68 88t-26 132zM156 264q0 -92 60 -147.5t155 -55.5q63 0 114.5 28t86 75t54 109.5t19.5 129.5v76l-276 -14q-104 -4 -158.5 -48t-54.5 -153zM299 1190l147 229h72l141 -229l-41 -43l-139 213l-137 -213z " />
<glyph unicode="&#xe3;" horiz-adv-x="827" d="M61 264q0 145 76 213t213 74l293 12v123q0 141 -57.5 199.5t-163.5 58.5q-102 0 -152.5 -46t-72.5 -138h-95q6 53 28 101t61.5 85t97 58.5t133.5 21.5q88 0 147.5 -28.5t95 -82t51 -128t15.5 -166.5v-510q0 -23 2 -45q2 -18 3 -37t5 -29h-86q-2 14 -4 33q-2 16 -3 35.5 t-1 42.5v67q-51 -109 -126 -153.5t-165 -44.5q-55 0 -107 15t-94 49t-68 88t-26 132zM156 264q0 -92 60 -147.5t155 -55.5q63 0 114.5 28t86 75t54 109.5t19.5 129.5v76l-276 -14q-104 -4 -158.5 -48t-54.5 -153zM221 1282q8 37 25.5 62.5t39 42t45 23.5t42.5 7 q39 0 66.5 -14t52 -31.5t48 -32t54.5 -14.5q25 0 52.5 12.5t45.5 55.5h56q-16 -66 -60.5 -101t-93.5 -35q-37 0 -63.5 14.5t-51 32t-49 32t-57.5 14.5q-29 0 -51.5 -12.5t-45.5 -55.5h-55z" />
<glyph unicode="&#xe4;" horiz-adv-x="821" d="M61 264q0 145 76 213t213 74l293 12v123q0 141 -57.5 199.5t-163.5 58.5q-102 0 -152.5 -46t-72.5 -138h-95q6 53 28 101t61.5 85t97 58.5t133.5 21.5q88 0 147.5 -28.5t95 -82t51 -128t15.5 -166.5v-510q0 -23 2 -45q2 -18 3 -37t5 -29h-86q-2 14 -4 33q-2 16 -3 35.5 t-1 42.5v67q-51 -109 -126 -153.5t-165 -44.5q-55 0 -107 15t-94 49t-68 88t-26 132zM156 264q0 -92 60 -147.5t155 -55.5q63 0 114.5 28t86 75t54 109.5t19.5 129.5v76l-276 -14q-104 -4 -158.5 -48t-54.5 -153zM274 1214v129h93v-129h-93zM569 1214v129h90v-129h-90z" />
<glyph unicode="&#xe5;" horiz-adv-x="821" d="M61 264q0 145 76 213t213 74l297 12v123q0 141 -59.5 199.5t-165.5 58.5q-102 0 -154.5 -46t-74.5 -138h-91q6 53 28 101t61.5 85t97 58.5t133.5 21.5q88 0 147.5 -28.5t95 -82t51 -128t15.5 -166.5v-510q0 -23 2 -45q2 -18 3 -37t5 -29h-82q-2 14 -4 33q-2 16 -3 35.5 t-1 42.5v67q-51 -109 -128 -153.5t-167 -44.5q-55 0 -107 15t-94 49t-68 88t-26 132zM152 264q0 -92 60 -147.5t155 -55.5q63 0 115.5 28t89 75t57 109.5t20.5 129.5v76l-284 -14q-104 -4 -158.5 -48t-54.5 -153zM328 1374q0 43 13 80t35.5 65.5t52.5 45t65 16.5 q33 0 63.5 -16.5t53 -45t35.5 -65.5t13 -80t-13 -80t-35.5 -65.5t-53.5 -45t-63 -16.5q-35 0 -65 16.5t-52.5 45t-35.5 65.5t-13 80zM391 1374q0 -53 31 -90t72 -37t70.5 37t29.5 90t-29.5 90t-70.5 37t-72 -37t-31 -90z" />
<glyph unicode="&#xe6;" horiz-adv-x="1458" d="M61 264q0 145 76 213t213 74l293 12v123q0 141 -57.5 199.5t-163.5 58.5q-102 0 -152.5 -46t-72.5 -138h-95q6 53 28 101t61.5 85t97 58.5t133.5 21.5q117 0 183.5 -50t96.5 -140q47 98 128.5 144t185.5 46q186 0 279.5 -135t93.5 -385v-17h-658q2 -92 19.5 -170.5 t51.5 -135t87 -89.5t131 -33q98 0 173 75t89 231h102q-12 -86 -37.5 -158t-69.5 -123t-107.5 -78.5t-149.5 -27.5q-133 0 -215 61t-123 168q-23 -59 -59.5 -102.5t-80.5 -72t-92.5 -41.5t-93.5 -13q-55 0 -107 15t-94 49t-68 88t-26 132zM156 264q0 -92 60 -147.5t155 -55.5 q63 0 114.5 28t86 75t54 109.5t19.5 129.5v76l-276 -14q-104 -4 -158.5 -48t-54.5 -153zM731 567h559q-4 80 -21.5 148.5t-50 119t-83 80t-119.5 29.5q-66 0 -117 -29.5t-88 -80t-57.5 -119t-22.5 -148.5z" />
<glyph unicode="&#xe7;" horiz-adv-x="884" d="M70 502q0 117 22.5 213t69.5 164.5t118.5 107.5t172.5 39q145 0 239 -92t117 -256h-102q-29 145 -96.5 205.5t-164.5 60.5q-78 0 -131 -36t-85.5 -96t-48 -141t-15.5 -171q0 -88 15.5 -168t48 -139.5t86 -95.5t130.5 -36q63 0 110.5 24t80.5 66t51.5 97t24.5 119h102 q-51 -369 -338 -385l-26 -84q6 4 16 7t33 3q51 0 82.5 -45t31.5 -111q0 -86 -37.5 -127t-107.5 -41q-47 0 -74.5 28t-42.5 62l45 33q12 -27 33 -40t39 -13q41 0 58.5 28.5t17.5 69.5q0 43 -21.5 67.5t-54.5 24.5q-23 0 -36 -8t-23 -18l-48 43l41 121q-168 16 -250.5 150 t-82.5 370z" />
<glyph unicode="&#xe8;" horiz-adv-x="890" d="M70 500q0 268 104.5 397t274.5 129q186 0 279 -135t93 -385v-17h-657q2 -92 19.5 -170.5t51 -135t87 -89.5t131.5 -33q98 0 172.5 75t89.5 231h102q-12 -86 -37.5 -158t-69.5 -123t-107.5 -78.5t-149.5 -27.5q-104 0 -177 38.5t-119 108.5t-66.5 165t-20.5 208zM164 567 h559q-4 80 -21.5 148.5t-50.5 119t-83 80t-119 29.5q-66 0 -117 -29.5t-88 -80t-57.5 -119t-22.5 -148.5zM289 1417l73 68l170 -301l-43 -47z" />
<glyph unicode="&#xe9;" horiz-adv-x="890" d="M70 500q0 268 104.5 397t274.5 129q186 0 279 -135t93 -385v-17h-657q2 -92 19.5 -170.5t51 -135t87 -89.5t131.5 -33q98 0 172.5 75t89.5 231h102q-12 -86 -37.5 -158t-69.5 -123t-107.5 -78.5t-149.5 -27.5q-104 0 -177 38.5t-119 108.5t-66.5 165t-20.5 208zM164 567 h559q-4 80 -21.5 148.5t-50.5 119t-83 80t-119 29.5q-66 0 -117 -29.5t-88 -80t-57.5 -119t-22.5 -148.5zM365 1200l172 299l71 -69l-194 -279z" />
<glyph unicode="&#xea;" horiz-adv-x="890" d="M70 500q0 268 104.5 397t274.5 129q186 0 279 -135t93 -385v-17h-657q2 -92 19.5 -170.5t51 -135t87 -89.5t131.5 -33q98 0 172.5 75t89.5 231h102q-12 -86 -37.5 -158t-69.5 -123t-107.5 -78.5t-149.5 -27.5q-104 0 -177 38.5t-119 108.5t-66.5 165t-20.5 208zM164 567 h559q-4 80 -21.5 148.5t-50.5 119t-83 80t-119 29.5q-66 0 -117 -29.5t-88 -80t-57.5 -119t-22.5 -148.5zM268 1190l146 229h71l144 -229l-43 -43l-137 213l-138 -213z" />
<glyph unicode="&#xeb;" horiz-adv-x="890" d="M70 500q0 268 104.5 397t274.5 129q186 0 279 -135t93 -385v-17h-657q2 -92 19.5 -170.5t51 -135t87 -89.5t131.5 -33q98 0 172.5 75t89.5 231h102q-12 -86 -37.5 -158t-69.5 -123t-107.5 -78.5t-149.5 -27.5q-104 0 -177 38.5t-119 108.5t-66.5 165t-20.5 208zM164 567 h559q-4 80 -21.5 148.5t-50.5 119t-83 80t-119 29.5q-66 0 -117 -29.5t-88 -80t-57.5 -119t-22.5 -148.5zM250 1214v129h94v-129h-94zM545 1214v129h90v-129h-90z" />
<glyph unicode="&#xec;" horiz-adv-x="352" d="M4 1417l74 68l170 -301l-43 -47zM123 0v1006h90v-1006h-90z" />
<glyph unicode="&#xed;" horiz-adv-x="311" d="M66 1200l172 299l73 -69l-196 -279zM98 0v1006h90v-1006h-90z" />
<glyph unicode="&#xee;" horiz-adv-x="430" d="M35 1190l145 229h72l143 -229l-43 -43l-137 213l-137 -213zM168 0v1006h90v-1006h-90z" />
<glyph unicode="&#xef;" horiz-adv-x="413" d="M14 1214v129h95v-129h-95zM160 0v1006h90v-1006h-90zM309 1214v129h90v-129h-90z" />
<glyph unicode="&#xf0;" horiz-adv-x="849" d="M70 498q0 115 20.5 211t63.5 166.5t110.5 110.5t159.5 40q41 0 69.5 -8t59.5 -21l-78 203h-235v70h204l-75 170h94l72 -170h149v-70h-121q80 -176 124 -290.5t64.5 -192.5t24.5 -127t4 -92q0 -113 -21.5 -209t-64.5 -167t-110.5 -111t-159.5 -40q-96 0 -163.5 42 t-109.5 114t-61.5 167t-19.5 204zM166 498q0 -82 13.5 -161t43 -141.5t78.5 -100.5t123 -38q76 0 125 42t78.5 107.5t42 142.5t12.5 149q0 80 -13.5 159.5t-44 143t-79.5 103.5t-121 40q-78 0 -127 -43t-79 -108.5t-41 -144t-11 -150.5z" />
<glyph unicode="&#xf1;" d="M123 0v1006h90v-156q57 94 128 136t159 42q156 0 239.5 -101.5t83.5 -269.5v-657h-92v649q0 141 -57.5 218t-184.5 77q-51 0 -100 -26.5t-88 -71.5t-63.5 -102.5t-24.5 -120.5v-623h-90zM203 1282q8 37 26.5 62.5t40 42t44 23.5t40.5 7q39 0 67 -14t52.5 -31.5t48 -32 t53.5 -14.5q27 0 53.5 12.5t45.5 55.5h55q-16 -66 -60 -101t-91 -35q-37 0 -65 14.5t-52.5 32t-49 32t-55.5 14.5q-29 0 -52 -12.5t-44 -55.5h-57z" />
<glyph unicode="&#xf2;" horiz-adv-x="897" d="M70 502q0 117 22.5 213t69.5 164.5t117.5 107.5t169.5 39q98 0 168.5 -39t117.5 -107.5t69.5 -165t22.5 -212.5q0 -246 -95 -384t-283 -138t-283.5 138t-95.5 384zM166 500q0 -88 15.5 -168t49 -139.5t87 -95.5t131.5 -36q76 0 130 36t87.5 95.5t49 139.5t15.5 168 q0 90 -15.5 171t-49 141t-88 96t-129.5 36q-78 0 -131.5 -36t-87 -96t-49 -141t-15.5 -171zM297 1417l74 68l172 -301l-43 -47z" />
<glyph unicode="&#xf3;" horiz-adv-x="897" d="M70 502q0 117 22.5 213t69.5 164.5t117.5 107.5t169.5 39q98 0 168.5 -39t117.5 -107.5t69.5 -165t22.5 -212.5q0 -246 -95 -384t-283 -138t-283.5 138t-95.5 384zM166 500q0 -88 15.5 -168t49 -139.5t87 -95.5t131.5 -36q76 0 130 36t87.5 95.5t49 139.5t15.5 168 q0 90 -15.5 171t-49 141t-88 96t-129.5 36q-78 0 -131.5 -36t-87 -96t-49 -141t-15.5 -171zM373 1198l172 299l71 -70l-194 -278z" />
<glyph unicode="&#xf4;" horiz-adv-x="897" d="M70 502q0 117 22.5 213t69.5 164.5t117.5 107.5t169.5 39q98 0 168.5 -39t117.5 -107.5t69.5 -165t22.5 -212.5q0 -246 -95 -384t-283 -138t-283.5 138t-95.5 384zM166 500q0 -88 15.5 -168t49 -139.5t87 -95.5t131.5 -36q76 0 130 36t87.5 95.5t49 139.5t15.5 168 q0 90 -15.5 171t-49 141t-88 96t-129.5 36q-78 0 -131.5 -36t-87 -96t-49 -141t-15.5 -171zM270 1190l146 229h71l144 -229l-43 -43l-137 213l-138 -213z" />
<glyph unicode="&#xf5;" horiz-adv-x="897" d="M70 502q0 117 22.5 213t69.5 164.5t117.5 107.5t169.5 39q98 0 168.5 -39t117.5 -107.5t69.5 -165t22.5 -212.5q0 -246 -95 -384t-283 -138t-283.5 138t-95.5 384zM166 500q0 -88 15.5 -168t49 -139.5t87 -95.5t131.5 -36q76 0 130 36t87.5 95.5t49 139.5t15.5 168 q0 90 -15.5 171t-49 141t-88 96t-129.5 36q-78 0 -131.5 -36t-87 -96t-49 -141t-15.5 -171zM184 1282q8 37 26.5 62.5t40 42t44 23.5t41.5 7q39 0 66.5 -14t52 -31.5t48 -32t54.5 -14.5q27 0 53.5 12.5t44.5 55.5h56q-16 -66 -60.5 -101t-91.5 -35q-37 0 -64.5 14.5t-52 32 t-49 32t-55.5 14.5q-29 0 -52.5 -12.5t-45.5 -55.5h-56z" />
<glyph unicode="&#xf6;" horiz-adv-x="897" d="M70 502q0 117 22.5 213t69.5 164.5t117.5 107.5t169.5 39q98 0 168.5 -39t117.5 -107.5t69.5 -165t22.5 -212.5q0 -246 -95 -384t-283 -138t-283.5 138t-95.5 384zM166 500q0 -88 15.5 -168t49 -139.5t87 -95.5t131.5 -36q76 0 130 36t87.5 95.5t49 139.5t15.5 168 q0 90 -15.5 171t-49 141t-88 96t-129.5 36q-78 0 -131.5 -36t-87 -96t-49 -141t-15.5 -171zM254 1214v129h92v-129h-92zM549 1214v129h90v-129h-90z" />
<glyph unicode="&#xf7;" horiz-adv-x="989" d="M100 586v96h789v-96h-789zM426 178v156h141v-156h-141zM426 932v155h141v-155h-141z" />
<glyph unicode="&#xf8;" horiz-adv-x="897" d="M70 502q0 117 22.5 213t69.5 164.5t117.5 107.5t169.5 39q68 0 129 -22l28 79h82l-41 -114q92 -61 136 -183t44 -284q0 -246 -95 -384t-283 -138q-80 0 -144 24l-29 -82h-81l43 121q-84 63 -126 179t-42 280zM166 500q0 -111 24.5 -207t79.5 -156l279 787q-41 20 -100 20 q-78 0 -131.5 -36t-87 -96t-49 -141t-15.5 -171zM334 86q49 -25 115 -25q76 0 130 36t87.5 95.5t49 139.5t15.5 168q0 119 -27.5 219t-89.5 160z" />
<glyph unicode="&#xf9;" d="M123 348v658h92v-650q0 -141 65.5 -218t192.5 -77q51 0 98 27t83 71t57.5 102t21.5 122v623h90v-1006h-90v156q-57 -94 -127.5 -136.5t-159.5 -42.5q-156 0 -239.5 101.5t-83.5 269.5zM297 1417l74 68l170 -301l-43 -47z" />
<glyph unicode="&#xfa;" d="M123 348v658h92v-650q0 -141 65.5 -218t192.5 -77q51 0 98 27t83 71t57.5 102t21.5 122v623h90v-1006h-90v156q-57 -94 -127.5 -136.5t-159.5 -42.5q-156 0 -239.5 101.5t-83.5 269.5zM367 1200l172 299l73 -69l-196 -279z" />
<glyph unicode="&#xfb;" d="M123 348v658h92v-650q0 -141 65.5 -218t192.5 -77q51 0 98 27t83 71t57.5 102t21.5 122v623h90v-1006h-90v156q-57 -94 -127.5 -136.5t-159.5 -42.5q-156 0 -239.5 101.5t-83.5 269.5zM301 1190l148 229h71l142 -229l-41 -43l-140 213l-137 -213z" />
<glyph unicode="&#xfc;" d="M123 348v658h92v-650q0 -141 65.5 -218t192.5 -77q51 0 98 27t83 71t57.5 102t21.5 122v623h90v-1006h-90v156q-57 -94 -127.5 -136.5t-159.5 -42.5q-156 0 -239.5 101.5t-83.5 269.5zM285 1217v129h94v-129h-94zM580 1217v129h90v-129h-90z" />
<glyph unicode="&#xfd;" horiz-adv-x="796" d="M18 1006h95l284 -904l287 904h94l-389 -1194q-29 -90 -75 -146.5t-121 -56.5q-39 0 -64 10q-12 4 -23 10v78q10 -2 19 -4q8 -2 16.5 -4t18.5 -2q41 -4 70.5 13.5t50 49t33 71.5t22.5 81l12 53zM328 1200l172 299l71 -69l-194 -279z" />
<glyph unicode="&#xfe;" horiz-adv-x="929" d="M111 -416v1852h90v-588q27 51 62.5 86t72.5 55.5t73.5 28.5t67.5 8q178 0 276.5 -136t98.5 -386q0 -117 -22.5 -213t-69.5 -165t-119 -107.5t-170 -38.5q-66 0 -139.5 37.5t-130.5 138.5v-572h-90zM201 465q0 -86 16 -161t50 -128t84 -84t120 -31q78 0 132 36t88 96.5 t49.5 141.5t15.5 171q0 88 -15.5 168t-49.5 139t-88 95t-132 36q-70 0 -121 -30.5t-84 -82t-49 -119t-16 -139.5v-108z" />
<glyph unicode="&#xff;" horiz-adv-x="796" d="M18 1006h95l284 -904l287 904h94l-389 -1194q-29 -90 -75 -146.5t-121 -56.5q-39 0 -64 10q-12 4 -23 10v78q10 -2 19 -4q8 -2 16.5 -4t18.5 -2q41 -4 70.5 13.5t50 49t33 71.5t22.5 81l12 53zM211 1262v129h84v-129h-84zM500 1262v129h88v-129h-88z" />
<glyph unicode="&#x152;" horiz-adv-x="1601" d="M90 713q0 141 19.5 272t70.5 232.5t138.5 163t222.5 61.5q137 0 222 -61.5t138 -163.5v202h641v-98h-545v-563h510v-94h-510v-566h559v-98h-655v215q-53 -109 -139 -172t-221 -63q-129 0 -216 60t-139.5 161.5t-74 233.5t-21.5 278zM193 713q0 -115 12 -227.5t48 -201.5 t102 -143.5t175 -54.5q117 0 189 54.5t110.5 143.5t52 201.5t13.5 227.5q0 123 -14.5 234.5t-54.5 197.5t-110.5 137t-185.5 51q-104 0 -169.5 -51t-103.5 -137t-51 -197.5t-13 -234.5z" />
<glyph unicode="&#x153;" horiz-adv-x="1583" d="M82 502q0 117 22.5 213t68.5 164.5t117.5 107.5t170.5 39q129 0 210 -69.5t122 -186.5q45 127 130 191.5t203 64.5q186 0 280.5 -135t94.5 -385v-17h-659q2 -92 19.5 -170.5t51 -135t87 -89.5t130.5 -33q98 0 173 75t90 231h102q-12 -86 -37.5 -158t-70 -123 t-107.5 -78.5t-150 -27.5q-135 0 -217 69.5t-120 181.5q-41 -117 -125 -184t-207 -67q-188 0 -283.5 138t-95.5 384zM178 500q0 -88 15.5 -168t49 -139.5t87 -95.5t131.5 -36q76 0 130 36t87 95.5t48 139.5t15 168q0 90 -15 171t-48 141t-87 96t-130 36q-78 0 -131.5 -36 t-87 -96t-49 -141t-15.5 -171zM842 567h559q-4 80 -21.5 148.5t-50.5 119t-83 80t-120 29.5q-66 0 -117 -29.5t-86.5 -80t-56 -119t-24.5 -148.5z" />
<glyph unicode="&#x178;" horiz-adv-x="911" d="M-2 1419h115l342 -755l344 755h114l-407 -860v-559h-103v559zM223 1556v140h99v-140h-99zM586 1556v140h98v-140h-98z" />
<glyph unicode="&#x2c6;" horiz-adv-x="337" d="M-63 1090l206 329h60l198 -329h-69l-158 247l-158 -247h-79z" />
<glyph unicode="&#x2dc;" horiz-adv-x="382" d="M-80 1300q8 37 26.5 63t42 42t48 23.5t43.5 7.5q39 0 66.5 -14.5t52 -32t48 -32t54.5 -14.5q25 0 52.5 12.5t45.5 55.5h64q-16 -66 -64.5 -100.5t-97.5 -34.5q-37 0 -63.5 14.5t-51 31.5t-49 31.5t-57.5 14.5q-29 0 -51.5 -12.5t-44.5 -55.5h-64z" />
<glyph unicode="&#x2000;" horiz-adv-x="963" />
<glyph unicode="&#x2001;" horiz-adv-x="1927" />
<glyph unicode="&#x2002;" horiz-adv-x="963" />
<glyph unicode="&#x2003;" horiz-adv-x="1927" />
<glyph unicode="&#x2004;" horiz-adv-x="642" />
<glyph unicode="&#x2005;" horiz-adv-x="481" />
<glyph unicode="&#x2006;" horiz-adv-x="321" />
<glyph unicode="&#x2007;" horiz-adv-x="321" />
<glyph unicode="&#x2008;" horiz-adv-x="240" />
<glyph unicode="&#x2009;" horiz-adv-x="385" />
<glyph unicode="&#x200a;" horiz-adv-x="107" />
<glyph unicode="&#x2010;" horiz-adv-x="739" d="M123 557v94h493v-94h-493z" />
<glyph unicode="&#x2011;" horiz-adv-x="739" d="M123 557v94h493v-94h-493z" />
<glyph unicode="&#x2012;" horiz-adv-x="739" d="M123 557v94h493v-94h-493z" />
<glyph unicode="&#x2013;" horiz-adv-x="874" d="M4 559v84h866v-84h-866z" />
<glyph unicode="&#x2014;" horiz-adv-x="1558" d="M4 559v84h1550v-84h-1550z" />
<glyph unicode="&#x2018;" horiz-adv-x="550" d="M174 1047l119 372h84l-72 -372h-131z" />
<glyph unicode="&#x2019;" horiz-adv-x="548" d="M174 1047q8 51 17.5 97t18.5 90t17.5 89t18.5 96h129l-123 -372h-78z" />
<glyph unicode="&#x201a;" horiz-adv-x="542" d="M174 -195q16 104 31.5 186.5t32.5 184.5h131l-111 -371h-84z" />
<glyph unicode="&#x201c;" horiz-adv-x="796" d="M154 1047l118 372h84l-69 -372h-133zM440 1047l119 372h84l-70 -372h-133z" />
<glyph unicode="&#x201d;" horiz-adv-x="794" d="M154 1047l71 372h129l-123 -372h-77zM440 1047l72 372h129l-123 -372h-78z" />
<glyph unicode="&#x201e;" horiz-adv-x="780" d="M154 -195l63 371h131l-108 -371h-86zM432 -195l64 371h131l-109 -371h-86z" />
<glyph unicode="&#x2022;" horiz-adv-x="1773" d="M152 709q0 152 57 285.5t157.5 233t234.5 158t286 58.5t286 -58.5t233 -158t157.5 -233.5t58.5 -285q0 -152 -58.5 -286t-157.5 -234.5t-233.5 -158t-285.5 -57.5q-152 0 -286 57.5t-234.5 158t-157.5 234.5t-57 286z" />
<glyph unicode="&#x2026;" horiz-adv-x="1347" d="M209 0v160h147v-160h-147zM610 0v160h148v-160h-148zM1012 0v160h147v-160h-147z" />
<glyph unicode="&#x202f;" horiz-adv-x="385" />
<glyph unicode="&#x2039;" horiz-adv-x="577" d="M90 502l264 463h107l-264 -463l262 -457h-107z" />
<glyph unicode="&#x203a;" horiz-adv-x="577" d="M115 965h106l264 -463l-260 -457h-106l260 457z" />
<glyph unicode="&#x205f;" horiz-adv-x="481" />
<glyph unicode="&#x20ac;" horiz-adv-x="993" d="M29 522v90h112q-2 25 -2 49.5v51.5q0 29 1 59.5t3 58.5h-114v91h121q12 109 41.5 204t82 165.5t130 111.5t188.5 41q170 0 270.5 -91t134.5 -257h-120q-6 51 -31 94t-61.5 74.5t-86 50t-104.5 18.5q-82 0 -140.5 -31.5t-98.5 -87t-63.5 -131t-33.5 -161.5h442v-91h-450 q-2 -29 -2 -59.5v-58.5v-51.5t2 -49.5h450v-90h-444q8 -88 28.5 -167t60.5 -139t102.5 -95t154.5 -35q117 0 184.5 64.5t96.5 173.5h114q-35 -168 -134 -256t-271 -88q-109 0 -186.5 41.5t-131 115.5t-84 172.5t-43.5 212.5h-118z" />
<glyph unicode="&#x2122;" horiz-adv-x="1392" d="M172 1374v45h442v-45h-186v-534h-47v534h-209zM678 840v579h74l196 -489l197 489h76v-579h-52v514l-206 -514h-27l-211 514v-514h-47z" />
<glyph unicode="&#x25fc;" horiz-adv-x="1003" d="M0 0v1004h1004v-1004h-1004z" />
</font>
</defs>
</svg>
