<?xml version="1.0" standalone="no"?>
<!DOCTYPE svg PUBLIC "-//W3C//DTD SVG 1.1//EN" "http://www.w3.org/Graphics/SVG/1.1/DTD/svg11.dtd" >
<svg xmlns="http://www.w3.org/2000/svg">
<metadata></metadata>
<defs>
<font id="lunchtype25condensed_medium" horiz-adv-x="1077" >
<font-face units-per-em="2048" ascent="1536" descent="-512" />
<missing-glyph horiz-adv-x="458" />
<glyph horiz-adv-x="0" />
<glyph horiz-adv-x="682" />
<glyph unicode=" "  horiz-adv-x="458" />
<glyph unicode="&#x09;" horiz-adv-x="458" />
<glyph unicode="&#xa0;" horiz-adv-x="458" />
<glyph unicode="!" horiz-adv-x="555" d="M168 0v262h219v-262h-219zM168 1049v370h217v-370l-27 -615h-163z" />
<glyph unicode="&#x22;" horiz-adv-x="876" d="M156 1202v240h227v-240l-21 -293h-184zM494 1202v240h227v-240l-23 -293h-186z" />
<glyph unicode="#" horiz-adv-x="1003" d="M-6 389v197h182l31 219h-172v205h203l65 432h199l-64 -432h213l60 432h202l-61 -432h158v-205h-185l-30 -219h151v-197h-180l-51 -389h-205l53 389h-215l-55 -389h-203l57 389h-153zM377 586h215l33 219h-215z" />
<glyph unicode="$" horiz-adv-x="925" d="M33 424h233q12 -170 133 -217v428q-59 18 -117.5 42.5t-105.5 70t-75.5 117t-28.5 182.5q0 172 92 271t235 118v116h154v-120q160 -25 237.5 -135.5t77.5 -270.5h-219q0 61 -24.5 111.5t-71.5 74.5v-366q61 -20 121.5 -49t108.5 -77t79 -124t31 -188q0 -98 -26.5 -172 t-72.5 -126.5t-108.5 -83t-132.5 -38.5v-125h-154v125q-80 8 -147.5 38.5t-115.5 84t-75.5 131t-27.5 182.5zM289 1053q0 -59 30.5 -94t79.5 -58v322q-57 -18 -83.5 -64.5t-26.5 -105.5zM553 209q47 23 81 69.5t34 120.5q0 72 -32 114t-83 67v-371z" />
<glyph unicode="%" horiz-adv-x="1462" d="M74 1067q0 66 13 131.5t43 117.5t77 84t112 32q66 0 112 -33t75 -86t42 -119t13 -133q0 -205 -65.5 -304.5t-176.5 -99.5q-109 0 -177 100.5t-68 309.5zM242 1059q0 -31 2 -67t10 -67.5t23.5 -52t41.5 -20.5q25 0 39.5 20.5t22.5 52t10 67.5t2 67q0 27 -3 58.5t-11 59 t-22.5 45t-37.5 17.5q-25 0 -40 -17.5t-23 -45t-11 -59t-3 -58.5zM295 -8l684 1528l180 -90l-688 -1534zM903 395q0 66 13.5 131.5t43 117.5t75.5 84t112 32q68 0 114 -33t74.5 -86t41 -118.5t12.5 -133.5q0 -205 -66 -304t-176 -99q-111 0 -177.5 99t-66.5 310zM1069 387 q0 -31 3 -66.5t11.5 -67.5t23.5 -52.5t40 -20.5t39 20.5t22.5 52.5t10.5 67.5t2 66.5q0 27 -3.5 58.5t-11.5 59t-22.5 45t-36.5 17.5q-25 0 -40 -17.5t-23.5 -45t-11.5 -59t-3 -58.5z" />
<glyph unicode="&#x26;" horiz-adv-x="968" d="M43 418q0 139 56.5 227t138.5 143q-18 35 -33 65t-24 59.5t-14 63.5t-5 77q0 80 24.5 140t66.5 101t100.5 62.5t125.5 21.5q53 0 103.5 -18.5t89.5 -56t62.5 -94t23.5 -132.5q0 -68 -15.5 -117t-46 -87.5t-76 -73.5t-102.5 -78l205 -311q10 16 13 43.5t2 58.5t-3 60.5 t-2 52.5h158q-2 -94 -17.5 -193.5t-52.5 -179.5q27 -31 40 -54.5t38 -23.5q23 0 45 6q12 4 27 8v-176q-29 -6 -48.5 -9t-35.5 -3q-74 0 -116 33t-75 76q-55 -55 -112.5 -82t-130.5 -27q-80 0 -154 24.5t-131 77t-91 130t-34 186.5zM238 414q0 -53 18 -93t49 -68t70 -42 t78 -14q37 0 74.5 19.5t70.5 49.5l-240 377q-49 -35 -84.5 -90t-35.5 -139zM346 1057q0 -53 17.5 -90t52.5 -88q27 18 56.5 39.5t54 45t40 48t15.5 53.5q0 53 -30 84t-83 31t-88 -32t-35 -91z" />
<glyph unicode="'" horiz-adv-x="526" d="M158 1225v219h211v-219l-21 -314h-168z" />
<glyph unicode="(" horiz-adv-x="524" d="M76 584q0 266 87 509.5t228 440.5l133 -111q-109 -178 -176 -395t-67 -446q0 -227 67.5 -438.5t175.5 -391.5l-133 -106q-141 195 -228 433t-87 505z" />
<glyph unicode=")" horiz-adv-x="522" d="M0 -248q106 180 175 391t69 439q0 229 -69 446t-175 395l133 111q141 -197 227 -440.5t86 -509.5t-86 -505t-227 -433z" />
<glyph unicode="*" horiz-adv-x="739" d="M33 901l188 107l-188 112l90 185l174 -150l-27 264h199l-27 -264l174 150l91 -185l-191 -110l191 -111l-91 -184l-174 149l27 -264h-199l29 262l-178 -149z" />
<glyph unicode="+" horiz-adv-x="921" d="M96 522v215h269v318h194v-318h266v-215h-266v-323h-194v323h-269z" />
<glyph unicode="," horiz-adv-x="497" d="M129 0v270h240v-237l-62 -250h-162l35 217h-51z" />
<glyph unicode="-" horiz-adv-x="677" d="M92 485v213h494v-213h-494z" />
<glyph unicode="." horiz-adv-x="495" d="M129 0v270h238v-270h-238z" />
<glyph unicode="/" horiz-adv-x="692" d="M-20 -360l540 1914h193l-539 -1914h-194z" />
<glyph unicode="0" horiz-adv-x="937" d="M57 727q0 123 18.5 247t64.5 222t124 159.5t199 61.5q125 0 206 -61.5t128 -159.5t65.5 -221t18.5 -248q0 -748 -418 -747q-207 0 -306.5 185t-99.5 562zM276 727q0 -74 1.5 -163t17.5 -167t54 -130t114 -52t115.5 52t57 129t19.5 167t2 164t-4 154t-23.5 147.5 t-58.5 111.5t-108 44q-72 0 -110 -44t-55 -111.5t-19.5 -148.5t-2.5 -153z" />
<glyph unicode="1" horiz-adv-x="874" d="M123 1026v182q47 0 89 9.5t72.5 29t49 51t18.5 74.5v27h197v-1399h-221v1026h-205z" />
<glyph unicode="2" horiz-adv-x="858" d="M68 0v184q0 123 37.5 211t96 155.5t125 120t125 103.5t96.5 108.5t38 135.5q0 88 -24.5 140t-115.5 52q-66 0 -102.5 -49t-36.5 -135h-215q0 195 92 295t258 100q174 0 257 -105.5t83 -297.5q0 -117 -35.5 -197t-88 -139t-115 -104.5t-114.5 -94.5t-88 -110.5t-36 -149.5 h486v-223h-723z" />
<glyph unicode="3" horiz-adv-x="899" d="M63 377l216 -2q16 -86 56 -124t111 -38q96 0 134 54.5t38 138.5q0 104 -38.5 157t-147.5 53h-61v205h61q51 0 82 10.5t46 34t20.5 59.5t5.5 85q0 31 -7.5 61.5t-23.5 56t-41 41t-59 15.5q-41 0 -69 -13.5t-43 -35t-21.5 -51t-6.5 -62.5h-217q0 182 92.5 287.5 t255.5 105.5q172 0 265.5 -106.5t93.5 -298.5q0 -92 -35 -166t-76 -117q59 -49 100.5 -130t41.5 -191q0 -96 -27 -174t-78 -133.5t-122.5 -86t-162.5 -30.5q-166 0 -271 99t-112 296z" />
<glyph unicode="4" horiz-adv-x="925" d="M43 233v173l496 989h198v-932h146v-230h-146v-233h-217v233h-477zM291 463h229v526z" />
<glyph unicode="5" horiz-adv-x="870" d="M66 375h241q0 -63 31 -111.5t98 -48.5q90 0 119 66.5t29 197.5q0 135 -31 200.5t-113 65.5q-51 0 -75.5 -22.5t-28.5 -63.5h-242l29 734h629v-232h-424l-9 -235q33 23 63 35t73 12q168 0 259 -128t91 -368q0 -113 -25.5 -204t-75 -155.5t-118 -100t-154.5 -35.5 q-150 0 -250 101t-116 292z" />
<glyph unicode="6" horiz-adv-x="897" d="M51 623q0 225 35 381.5t92.5 254t132 141.5t156.5 44q72 0 133.5 -24.5t105.5 -68.5t69.5 -106.5t25.5 -138.5h-211q-8 63 -39 90t-82 27q-80 0 -127 -90.5t-63 -282.5q47 49 96 87t117 38q80 0 145 -35t111.5 -99.5t72 -156.5t25.5 -207q0 -119 -31 -211t-83 -155.5 t-123.5 -96t-151.5 -32.5q-186 0 -296 165.5t-110 475.5zM295 477q0 -55 11 -103t31.5 -84t51.5 -57.5t68 -21.5q47 0 78.5 21.5t51 57.5t28 84t8.5 103q0 47 -6.5 95.5t-24 86t-49 62t-82.5 24.5q-43 0 -75 -21.5t-52.5 -58t-29.5 -86t-9 -102.5z" />
<glyph unicode="7" horiz-adv-x="892" d="M61 1161v232h770v-209q-53 -70 -104 -148q-43 -66 -87 -150.5t-73 -170.5q-45 -141 -70.5 -268.5t-39.5 -227.5q-16 -117 -23 -219h-231q2 102 18 221q14 102 41 233.5t80 278.5q27 78 64.5 154t72.5 137q39 72 82 137h-500z" />
<glyph unicode="8" horiz-adv-x="903" d="M53 422q0 96 37 187t96 145q-51 53 -76.5 124.5t-25.5 157.5q0 98 31.5 174t83 127.5t118 78t138.5 26.5q74 0 140.5 -29t115.5 -82t77.5 -128t28.5 -167t-26.5 -161.5t-75.5 -120.5q70 -55 102.5 -144.5t32.5 -187.5q0 -115 -32 -198t-85 -136t-125.5 -79.5 t-152.5 -26.5q-86 0 -160 27.5t-128 82.5t-84 137t-30 193zM279 426q0 -117 53 -165t123 -48q72 0 121 49t49 164q0 96 -47.5 152.5t-122.5 56.5q-80 0 -128 -56.5t-48 -152.5zM307 1036q0 -96 40 -138t108 -42q66 0 104.5 42t38.5 138q0 84 -42 132.5t-101 48.5 q-66 0 -107 -48.5t-41 -132.5z" />
<glyph unicode="9" horiz-adv-x="872" d="M51 952q0 102 27.5 191.5t77 156t118 105.5t150.5 39q113 0 189.5 -50.5t122.5 -138.5t65.5 -209.5t19.5 -263.5q0 -180 -19.5 -327.5t-64.5 -253t-116.5 -162.5t-176.5 -57q-102 0 -170.5 35.5t-109.5 90t-57.5 117t-16.5 117.5l217 -2q6 -29 14.5 -55.5t21.5 -47 t34.5 -32.5t56.5 -12q49 0 81 25.5t51.5 73.5t31.5 116.5t20 154.5q-43 -47 -88 -75.5t-120 -28.5q-94 0 -162 40t-112 107.5t-64.5 156.5t-20.5 189zM266 967q0 -49 5 -99.5t22.5 -91.5t48.5 -67.5t84 -26.5q94 0 133 75t39 210q0 109 -42 178t-130 69q-43 0 -72.5 -20 t-49 -55t-29 -79t-9.5 -93z" />
<glyph unicode=":" horiz-adv-x="495" d="M129 0v270h238v-270h-238zM129 664v270h238v-270h-238z" />
<glyph unicode=";" horiz-adv-x="497" d="M129 0v270h240v-237l-62 -250h-162l35 217h-51zM129 664v270h240v-270h-240z" />
<glyph unicode="&#x3c;" horiz-adv-x="858" d="M96 516v205l666 354v-246l-424 -211l424 -210v-246z" />
<glyph unicode="=" horiz-adv-x="958" d="M96 252v201h766v-201h-766zM96 723v203h766v-203h-766z" />
<glyph unicode="&#x3e;" horiz-adv-x="858" d="M96 162v246l424 210l-424 211v246l666 -354v-205z" />
<glyph unicode="?" horiz-adv-x="843" d="M72 1040q0 106 28.5 182t76.5 125.5t110.5 73t134.5 23.5q74 0 137.5 -26.5t111.5 -78t74.5 -124t26.5 -166.5q0 -104 -40 -195.5t-111 -177.5q-25 -27 -40.5 -48.5t-25.5 -43t-14 -45t-4 -54.5v-49h-211v51q0 84 18 143.5t45 102.5t58.5 77t58 67.5t45 73.5t18.5 98 q0 86 -38.5 135t-108.5 49q-66 0 -98.5 -50t-42.5 -143h-209zM309 0v270h246v-270h-246z" />
<glyph unicode="@" horiz-adv-x="1325" d="M59 627q0 170 49.5 315t133.5 250.5t195.5 166t236.5 60.5q150 0 261.5 -62.5t185 -167t109.5 -241.5t36 -286q0 -211 -69 -327t-206 -116q-41 0 -84 35t-59 92q-16 -35 -44 -62.5t-59.5 -46t-65.5 -27.5t-61 -9q-49 0 -93 14t-77.5 45t-53 80t-19.5 121q0 57 22.5 101 t58.5 74t77.5 45t80.5 19l172 13v26q0 55 -22.5 99.5t-95.5 44.5q-82 0 -95 -82l-172 -2q8 82 36 132t65 77.5t81 37t85 9.5q74 0 125 -24.5t83.5 -68.5t47 -104.5t14.5 -130.5l-8 -242q0 -35 14 -69.5t53 -34.5q59 0 83 69.5t24 211.5q0 123 -31 227t-87 180t-136 119 t-176 43q-102 0 -185 -48t-142.5 -131t-92.5 -192.5t-33 -232.5q0 -139 35 -249t96.5 -186.5t144.5 -116.5t177 -40q57 0 110.5 24.5t114.5 67.5l74 -172q-154 -96 -301 -96q-139 0 -253 56t-194 157.5t-123 243t-43 311.5zM545 459q0 -74 96 -74q143 0 143 164l-143 -10 q-96 -2 -96 -80z" />
<glyph unicode="A" horiz-adv-x="1122" d="M4 0l442 1419h226l446 -1419h-233l-107 352h-438l-107 -352h-229zM406 567h307l-154 549z" />
<glyph unicode="B" horiz-adv-x="1011" d="M121 0v1419h379q203 0 307 -97t104 -312q0 -96 -31.5 -172t-84.5 -115q59 -37 103 -117.5t48 -193.5q0 -217 -99 -314.5t-300 -97.5h-426zM340 223h197q92 0 140 42t48 147q0 92 -51 141t-137 49h-197v-379zM340 825h166q94 0 140 41t46 144q0 92 -50 138t-136 46h-166 v-369z" />
<glyph unicode="C" horiz-adv-x="1019" d="M86 713q0 141 20.5 272t73.5 232.5t142.5 162t228.5 60.5q98 0 174 -32t129 -91.5t84 -143t39 -186.5h-227q-6 45 -19.5 87t-36 74t-57.5 50.5t-86 18.5q-78 0 -126 -42t-74.5 -113t-35 -161t-8.5 -188q0 -92 7.5 -183.5t33 -163t73.5 -116.5t130 -45q53 0 89 21.5 t59.5 57t34.5 80t16 91.5h227q-10 -219 -115.5 -346t-310.5 -127q-133 0 -222 60t-142.5 160.5t-77 232.5t-23.5 278z" />
<glyph unicode="D" horiz-adv-x="1042" d="M121 0v1419h342q256 0 374.5 -178t118.5 -532q0 -158 -23.5 -288t-79.5 -224.5t-149.5 -145.5t-230.5 -51h-352zM340 223h104q86 0 142.5 34t89.5 96.5t46 152.5t13 203q0 248 -71.5 367.5t-229.5 119.5h-94v-973z" />
<glyph unicode="E" horiz-adv-x="897" d="M121 0v1419h706v-225h-487v-373h455v-221h-455v-375h500v-225h-719z" />
<glyph unicode="F" horiz-adv-x="849" d="M121 0v1419h682v-223h-461v-383h440v-219h-440v-594h-221z" />
<glyph unicode="G" horiz-adv-x="1073" d="M86 713q0 141 20.5 272t72.5 232.5t141.5 162t228.5 60.5q96 0 173 -35t132 -95.5t87 -143.5t38 -179h-225q-6 45 -20.5 86t-39 72t-59.5 49t-84 18q-78 0 -126 -42t-74.5 -110.5t-36 -158.5t-9.5 -188q0 -92 6 -183.5t31 -163t72 -116.5t129 -45q70 0 116 27.5 t73.5 73.5t39.5 107.5t16 129.5h-292v211h497v-754h-194v143q-45 -96 -105.5 -128.5t-150.5 -32.5q-133 0 -221.5 60t-140.5 160.5t-73.5 232.5t-21.5 278z" />
<glyph unicode="H" d="M121 0v1419h219v-579h399v579h217v-1419h-217v621h-399v-621h-219z" />
<glyph unicode="I" horiz-adv-x="440" d="M111 0v1419h219v-1419h-219z" />
<glyph unicode="J" horiz-adv-x="796" d="M33 348h225q0 -57 20.5 -103t71.5 -46q47 0 71.5 20.5t35 62.5t11.5 106.5t1 154.5v876h217v-897q0 -104 -8 -201.5t-41 -173t-100.5 -120.5t-186.5 -45q-80 0 -136 27.5t-95 76.5t-59.5 115.5t-26.5 146.5z" />
<glyph unicode="K" horiz-adv-x="997" d="M121 0v1419h219v-635l418 635h278l-446 -639l446 -780h-260l-334 606l-102 -151v-455h-219z" />
<glyph unicode="L" horiz-adv-x="811" d="M94 0v1419h221v-1194h457v-225h-678z" />
<glyph unicode="M" horiz-adv-x="1323" d="M121 0v1419h250l291 -973l290 973h250v-1419h-217v895l-266 -895h-119l-264 895v-895h-215z" />
<glyph unicode="N" horiz-adv-x="1120" d="M121 0v1419h231l428 -946v946h219v-1419h-227l-434 948v-948h-217z" />
<glyph unicode="O" horiz-adv-x="1101" d="M86 713q0 141 20.5 272t72.5 232.5t142.5 162t229.5 60.5t229 -60.5t142.5 -162t73 -232.5t20.5 -272q0 -145 -22.5 -277.5t-77 -233t-143.5 -160.5t-222 -60t-222 60t-143.5 160.5t-77 232.5t-22.5 278zM305 713q0 -92 7 -183.5t32 -163t73 -116.5t130 -45q86 0 136 45 t74.5 116.5t32 163t7.5 183.5q0 98 -8.5 188t-34 159.5t-75.5 111.5t-134 42q-78 0 -125 -42t-72.5 -111.5t-34 -159.5t-8.5 -188z" />
<glyph unicode="P" horiz-adv-x="946" d="M121 0v1419h373q92 0 167.5 -24.5t131 -76.5t86 -135t30.5 -198q0 -123 -29.5 -205t-84 -133t-128 -72.5t-161.5 -21.5h-168v-553h-217zM338 774h166q98 0 140 48t48 161q-4 109 -53 160t-135 51h-166v-420z" />
<glyph unicode="Q" horiz-adv-x="1067" d="M86 713q0 141 20.5 272t72.5 232.5t142.5 162t229.5 60.5t229 -60.5t142.5 -162t73 -232.5t20.5 -272q0 -154 -25.5 -292t-87.5 -243l94 -153l-161 -131l-84 135q-43 -23 -92.5 -35t-108.5 -12q-133 0 -222 60t-143.5 160.5t-77 232.5t-22.5 278zM305 713q0 -92 7 -183.5 t32 -163t73 -116.5t130 -45q51 0 88 14l-92 152l159 137l66 -109q18 70 23.5 151t5.5 163q0 98 -8.5 188t-34 159.5t-75.5 111.5t-134 42q-78 0 -125 -42t-72.5 -111.5t-34 -159.5t-8.5 -188z" />
<glyph unicode="R" horiz-adv-x="1013" d="M121 0v1419h366q88 0 164 -25.5t132.5 -77.5t88 -133t31.5 -192q0 -154 -59.5 -252t-165.5 -137l303 -602h-252l-289 565h-100v-565h-219zM340 786h156q92 0 139 47.5t47 157.5q0 104 -53.5 154.5t-132.5 50.5h-156v-410z" />
<glyph unicode="S" horiz-adv-x="995" d="M68 424h233q10 -109 64.5 -169t148.5 -60q35 0 68.5 13t60.5 38.5t43 64.5t16 88q0 86 -44 130t-110.5 70t-143 46.5t-143 63.5t-111 120.5t-44.5 217.5q0 96 30 169.5t83 123t124 75t155 25.5q102 0 179 -31t127 -86t74.5 -131t24.5 -166h-219q0 86 -46 146.5t-132 60.5 q-96 0 -139 -51.5t-43 -128.5q0 -72 45 -109t111.5 -62.5t145.5 -50t145.5 -71.5t111.5 -129t45 -223q0 -111 -33 -191t-90 -132t-132 -77.5t-159 -25.5q-94 0 -176 24.5t-141.5 77.5t-94 137t-34.5 203z" />
<glyph unicode="T" horiz-adv-x="907" d="M12 1196v223h883v-223h-332v-1196h-219v1196h-332z" />
<glyph unicode="U" horiz-adv-x="1089" d="M102 586v833h217v-811q0 -80 6.5 -153.5t29 -131t67.5 -92t123 -34.5q76 0 121 33.5t68.5 90t30.5 131t7 156.5v811h215v-833q0 -139 -24.5 -252t-76.5 -192t-136 -120.5t-201 -41.5q-133 0 -219 47t-137.5 130t-71 192.5t-19.5 236.5z" />
<glyph unicode="V" horiz-adv-x="1019" d="M-12 1419h233l291 -1102l293 1102h227l-393 -1419h-256z" />
<glyph unicode="W" horiz-adv-x="1583" d="M12 1419h230l219 -1087l227 1087h211l223 -1087q57 262 112.5 546.5t111.5 540.5h225l-332 -1419h-217l-229 1094l-232 -1094h-219z" />
<glyph unicode="X" horiz-adv-x="1103" d="M0 0l412 729l-392 690h265l270 -512l268 512h260l-395 -686l416 -733h-264l-293 555l-291 -555h-256z" />
<glyph unicode="Y" horiz-adv-x="1048" d="M-8 1419h250l282 -667l291 667h242l-426 -866v-553h-219v553z" />
<glyph unicode="Z" horiz-adv-x="974" d="M61 0v227l605 967h-574v225h813v-231l-602 -963h610v-225h-852z" />
<glyph unicode="[" horiz-adv-x="489" d="M158 -340v1878h336v-182h-150v-1514h150v-182h-336z" />
<glyph unicode="\" horiz-adv-x="700" d="M-20 1554h194l547 -1914h-193z" />
<glyph unicode="]" horiz-adv-x="489" d="M-4 -158h149v1514h-149v182h336v-1878h-336v182z" />
<glyph unicode="^" horiz-adv-x="952" d="M117 942l272 596h172l275 -596h-213l-146 320l-147 -320h-213z" />
<glyph unicode="_" horiz-adv-x="851" d="M0 -166h852v-199h-852v199z" />
<glyph unicode="`" horiz-adv-x="454" d="M-29 1389l170 147l193 -336l-141 -125z" />
<glyph unicode="a" horiz-adv-x="839" d="M66 295q0 80 27.5 138.5t71.5 97t98 58t108 21.5l184 11v45q0 86 -26.5 128t-94.5 42q-59 0 -89 -33t-36 -88l-200 2q2 63 25.5 119.5t64.5 98.5t100 66.5t135 24.5q92 0 153.5 -29.5t98.5 -85t53.5 -133.5t16.5 -172v-456q0 -47 1 -77t3 -46q2 -20 4 -27h-180 q-4 8 -6 27q-4 16 -5.5 42.5t-1.5 73.5q-27 -72 -79 -117.5t-115 -45.5q-57 0 -113.5 17t-100.5 54t-70.5 97.5t-26.5 146.5zM268 291q0 -47 28 -79t87 -32q43 0 76 18.5t54.5 51.5t32.5 74t11 88v24l-176 -10q-68 -4 -90.5 -40t-22.5 -95z" />
<glyph unicode="b" horiz-adv-x="917" d="M106 0v1419h201v-508q33 53 77 84t91 31q98 0 170 -38t119 -107.5t69.5 -164.5t22.5 -212q0 -252 -95 -388t-265 -136q-55 0 -93 19t-61 44t-33 46.5t-10 23.5v-113h-193zM303 475q0 -53 8 -106.5t28.5 -96.5t53.5 -70.5t82 -27.5q51 0 86 27.5t54.5 72.5t27.5 104.5 t8 123.5q0 63 -8 123.5t-27.5 107.5t-54.5 75t-86 28q-49 0 -81 -27t-52 -71t-28.5 -101t-10.5 -119v-43z" />
<glyph unicode="c" horiz-adv-x="874" d="M66 504q0 117 22.5 212t69.5 163.5t118.5 106.5t169.5 38q68 0 127.5 -22.5t107.5 -66.5t80 -108.5t44 -148.5h-213q-18 72 -53 115t-93 43q-53 0 -86.5 -28t-53 -75t-28 -107.5t-8.5 -123.5t8.5 -123t28 -105t53 -72.5t86.5 -27.5q76 0 109 52.5t47 140.5h207 q-20 -186 -113.5 -286.5t-249.5 -100.5q-188 0 -284 136t-96 388z" />
<glyph unicode="d" horiz-adv-x="921" d="M66 504q0 117 22.5 212t69.5 164.5t118.5 107.5t169.5 38q47 0 91.5 -30.5t76.5 -84.5v508h201v-1419h-192v113q-2 -4 -12.5 -25.5t-33 -45.5t-59.5 -43t-92 -19q-170 0 -265 136t-95 388zM270 502q0 -63 8.5 -123t28 -105t53 -72.5t86.5 -27.5q49 0 82 27.5t53.5 70.5 t28.5 96.5t8 106.5v43q-2 61 -10 118.5t-28.5 101.5t-52.5 71t-81 27q-53 0 -86.5 -28t-53 -75t-28 -107.5t-8.5 -123.5z" />
<glyph unicode="e" horiz-adv-x="880" d="M66 502q0 266 105 394t278 128q164 0 265 -129t101 -389v-72h-545q6 -53 15.5 -100t29 -83t52 -56.5t86.5 -20.5q70 0 102.5 39t50.5 121h209q-16 -98 -49 -166t-80 -110t-106.5 -60t-126.5 -18q-102 0 -175 39.5t-120 109.5t-69.5 165t-22.5 208zM274 621h330 q-4 43 -13 81.5t-27.5 68.5t-47.5 47.5t-67 17.5q-43 0 -75 -18.5t-52.5 -48.5t-31.5 -68.5t-16 -79.5z" />
<glyph unicode="f" horiz-adv-x="548" d="M20 807v199h121v149q0 129 59.5 206t168.5 77q29 0 73.5 -4t85.5 -15v-192q-37 4 -70.5 6t-43.5 2q-70 0 -70 -113v-116h184v-199h-184v-807h-203v807h-121z" />
<glyph unicode="g" horiz-adv-x="915" d="M76 506q0 248 99 384t274 136q53 0 86.5 -19.5t56.5 -41.5q25 -27 41 -60v101h192v-1024q0 -98 -26.5 -174t-73.5 -129.5t-111.5 -81t-142.5 -27.5q-164 0 -264.5 74.5t-100.5 244.5h216q6 -51 36.5 -84.5t96.5 -33.5q90 0 131 56t41 161v118q-2 -4 -12.5 -24.5t-32 -43 t-54 -40.5t-79.5 -18q-98 0 -168 38.5t-116 108.5t-67.5 167t-21.5 212zM281 504q0 -72 9 -131.5t30.5 -104.5t56.5 -69.5t84 -24.5q51 0 84 28.5t52 76t26.5 106.5t7.5 119q0 59 -7.5 118.5t-26.5 106.5t-53 77t-85 30q-49 0 -84 -26t-55.5 -70t-29.5 -105.5t-9 -130.5z " />
<glyph unicode="h" horiz-adv-x="933" d="M106 0v1419h199v-512q41 66 87 92.5t100 26.5q156 0 247.5 -88t91.5 -283v-655h-200v643q0 92 -43 142.5t-117 50.5q-80 0 -120 -57.5t-40 -160.5v-618h-205z" />
<glyph unicode="i" horiz-adv-x="444" d="M117 1198v244h211v-244h-211zM123 0v1006h201v-1006h-201z" />
<glyph unicode="j" horiz-adv-x="471" d="M20 -205v-211h48q84 0 138 23.5t86 67.5t44 108.5t12 146.5v1076h-201v-1018q0 -61 -5 -99.5t-17 -58.5t-33.5 -27.5t-56.5 -7.5h-15zM143 1198v244h211v-244h-211z" />
<glyph unicode="k" horiz-adv-x="835" d="M106 0v1419h201v-837l287 424h258l-344 -443q39 -66 83 -137.5t89 -145t88 -145.5t82 -135h-244l-225 391l-74 -117v-274h-201z" />
<glyph unicode="l" horiz-adv-x="434" d="M117 0v1419h200v-1419h-200z" />
<glyph unicode="m" horiz-adv-x="1368" d="M117 0v1006h196v-95q29 51 72 83t96 32q98 0 148.5 -30.5t85.5 -84.5q86 115 233 115q160 0 231.5 -88t71.5 -283v-655h-200v643q0 100 -27 146.5t-98 46.5q-139 0 -140 -218v-618h-200v643q0 100 -32 146.5t-105 46.5q-76 0 -104 -54.5t-28 -163.5v-618h-200z" />
<glyph unicode="n" horiz-adv-x="933" d="M106 0v1006h195v-99q39 63 86 91t100 28q156 0 248 -88t92 -283v-655h-200v643q0 92 -42 142.5t-118 50.5q-78 0 -119 -57.5t-41 -160.5v-618h-201z" />
<glyph unicode="o" horiz-adv-x="894" d="M66 504q0 117 22.5 212t68.5 163.5t118.5 106.5t170.5 38t171 -38t120 -106.5t69.5 -163.5t22.5 -212q0 -252 -96 -388t-287 -136q-188 0 -284 136t-96 388zM268 502q0 -63 8.5 -123t28 -105t54 -72.5t87.5 -27.5t88 27.5t54.5 72.5t28 104.5t8.5 123.5q0 63 -8.5 123.5 t-28 107.5t-54.5 75t-88 28t-87.5 -28t-54 -75t-28 -107.5t-8.5 -123.5z" />
<glyph unicode="p" horiz-adv-x="921" d="M106 -416v1422h195v-95q2 4 11.5 22.5t31 40t55 38t86.5 16.5q94 0 164 -39t116 -107.5t68.5 -164.5t22.5 -213q0 -252 -91 -388t-273 -136q-51 0 -87 19t-58.5 44t-34 46.5t-11.5 23.5v-529h-195zM303 475q0 -53 8 -106.5t28.5 -96.5t53.5 -70.5t82 -27.5q51 0 86 27.5 t54.5 72.5t27.5 104.5t8 123.5q0 63 -8 123.5t-27.5 107.5t-54.5 75t-86 28q-49 0 -81 -27t-52 -71t-28.5 -101t-10.5 -119v-43z" />
<glyph unicode="q" horiz-adv-x="921" d="M66 504q0 117 22.5 213t68.5 164.5t115.5 107.5t163.5 39q49 0 84 -18.5t58 -40.5q25 -25 43 -58v95h194v-1422h-194v529q-2 -4 -13.5 -25.5t-35 -45.5t-58.5 -43t-84 -19q-182 0 -273 136t-91 388zM270 502q0 -63 8.5 -123t28 -105t53 -72.5t86.5 -27.5q49 0 82 27.5 t53.5 70.5t28.5 96.5t8 106.5v43q-2 61 -10 118.5t-28.5 101.5t-52.5 71t-81 27q-53 0 -86.5 -28t-53 -75t-28 -107.5t-8.5 -123.5z" />
<glyph unicode="r" horiz-adv-x="602" d="M106 0v1006h197v-78q33 53 73 75.5t95 22.5q20 0 51 -1t60 -9v-205q-29 10 -62 14t-49 4q-92 0 -128 -68.5t-36 -217.5v-543h-201z" />
<glyph unicode="s" horiz-adv-x="753" d="M57 283h207q10 -109 121 -109q47 0 80 24.5t33 96.5q0 59 -36 79.5t-102 35.5q-51 12 -102 26.5t-92 45t-66.5 86t-25.5 147.5q0 82 24.5 140t65.5 96t95 55.5t116 17.5q125 0 207 -75t84 -218h-189q-6 45 -32.5 75t-71.5 30q-47 0 -75 -27t-28 -74q0 -66 41 -89t107 -38 q51 -10 101 -25.5t89 -48t63.5 -90t24.5 -151.5q0 -88 -27.5 -148.5t-72.5 -97.5t-100.5 -52t-110.5 -15q-68 0 -127 17t-103 54t-71 94.5t-27 137.5z" />
<glyph unicode="t" horiz-adv-x="538" d="M25 807v199h106v294h201v-294h174v-199h-174v-522q0 -96 69 -97q20 0 48 5.5t45 9.5v-203q-41 -10 -80 -12t-56 -2q-111 0 -169 77.5t-58 206.5v537h-106z" />
<glyph unicode="u" horiz-adv-x="933" d="M106 350v656h201v-639q0 -92 42 -142.5t118 -50.5q78 0 119 57.5t41 159.5v615h200v-1006h-190l-4 98q-39 -63 -88 -90.5t-103 -27.5q-158 0 -247 87t-89 283z" />
<glyph unicode="v" horiz-adv-x="878" d="M14 1006h213l211 -725l213 725h213l-323 -1006h-209z" />
<glyph unicode="w" horiz-adv-x="1310" d="M31 1006h211l159 -676l168 676h174l166 -674l162 674h209l-262 -1006h-195l-168 676l-166 -676h-194z" />
<glyph unicode="x" horiz-adv-x="886" d="M6 0l313 520l-296 486h245l178 -322l172 322h248l-295 -486l310 -520h-246l-193 350l-190 -350h-246z" />
<glyph unicode="y" horiz-adv-x="884" d="M16 1006h211l213 -730l213 730h215l-393 -1166q-33 -96 -89 -163.5t-142 -67.5q-37 0 -78 7t-76 24v198q18 -6 37 -10q35 -10 63 -10q31 0 51.5 25.5t36 60.5t25.5 71.5t19 61.5z" />
<glyph unicode="z" horiz-adv-x="778" d="M61 0v174l412 625h-387v207h643v-175l-410 -624h414v-207h-672z" />
<glyph unicode="{" horiz-adv-x="516" d="M14 500v205h76q49 0 61.5 30.5t12.5 85.5v443q0 147 62.5 210.5t174.5 63.5h101v-182h-76q-43 0 -58.5 -25.5t-15.5 -75.5v-467q0 -55 -13 -102t-48 -86q35 -37 48 -84t13 -100v-475q0 -49 15.5 -75t58.5 -26h76v-182h-101q-113 0 -175 63.5t-62 210.5v451q0 55 -12.5 86 t-61.5 31h-76z" />
<glyph unicode="|" horiz-adv-x="458" d="M139 -342v1880h180v-1880h-180z" />
<glyph unicode="}" horiz-adv-x="516" d="M14 -160h74q43 0 58.5 25.5t15.5 75.5v475q0 53 14 100t49 84q-35 39 -49 86t-14 102v467q0 49 -15.5 75t-58.5 26h-74v182h99q113 0 175 -63.5t62 -210.5v-443q0 -55 13.5 -85.5t60.5 -30.5h78v-205h-78q-47 0 -60.5 -31t-13.5 -86v-451q0 -147 -62.5 -210.5 t-174.5 -63.5h-99v182z" />
<glyph unicode="~" horiz-adv-x="1187" d="M141 600q66 72 141.5 122t151.5 50q55 0 104.5 -19.5t94.5 -41.5q33 -16 62.5 -29.5t56.5 -13.5q43 0 80.5 30.5t72.5 71.5l142 -149q-68 -80 -138.5 -127.5t-156.5 -47.5q-51 0 -96.5 17.5t-86.5 40.5q-35 18 -68.5 33.5t-68.5 15.5q-39 0 -78 -32t-73 -77z" />
<glyph unicode="&#xa1;" horiz-adv-x="559" d="M168 -43l27 614h167l27 -614v-371h-221v371zM168 743v263h223v-263h-223z" />
<glyph unicode="&#xa2;" horiz-adv-x="940" d="M98 694q0 207 72 344.5t225 167.5v238h150v-236q111 -20 191.5 -106t101.5 -234h-213q-12 47 -32 83t-48 55v-627q39 20 59.5 66.5t30.5 111.5h207q-18 -166 -94 -264t-203 -119v-194h-150v198q-147 29 -222 161t-75 355zM303 692q0 -98 19.5 -180t72.5 -121v608 q-53 -41 -72.5 -125t-19.5 -182z" />
<glyph unicode="&#xa3;" horiz-adv-x="870" d="M25 0v231h118v398h-90v211h90v161q0 100 23.5 182.5t69 139.5t108 88t139.5 31q72 0 129.5 -29t97.5 -75t61.5 -105t21.5 -121h-211q-2 14 -4.5 32.5t-12.5 34t-29.5 25.5t-54.5 10q-68 0 -92 -55t-24 -153v-166h190v-211h-190v-398h167q41 0 69 36t34 108l211 -41 q-16 -154 -85 -244t-194 -90h-542z" />
<glyph unicode="&#xa4;" horiz-adv-x="915" d="M12 281l135 165q-23 49 -34 101.5t-11 118.5q0 61 12.5 115.5t32.5 101.5l-135 164l121 151l152 -158q41 29 83 44.5t91 15.5q47 0 91 -15.5t83 -42.5l149 158l121 -153l-131 -160q23 -51 34 -103.5t11 -117.5q0 -66 -12 -119t-35 -105l131 -163l-121 -152l-149 162 q-39 -27 -81 -42.5t-91 -15.5q-47 0 -91 16.5t-83 41.5l-152 -160zM295 666q0 -47 12 -89t33.5 -73t51.5 -49.5t67 -18.5t67.5 18.5t52 49.5t34 72.5t12.5 89.5q0 47 -12.5 89t-34 72.5t-52 49t-67.5 18.5t-67 -18.5t-51.5 -49t-33.5 -72.5t-12 -89z" />
<glyph unicode="&#xa5;" horiz-adv-x="1073" d="M4 1419h250l276 -653h13l284 653h242l-321 -653h149v-195h-246l-8 -18v-115h254v-194h-254v-244h-219v244h-242v194h242v115l-10 18h-232v195h137z" />
<glyph unicode="&#xa6;" horiz-adv-x="458" d="M139 -342v829h180v-829h-180zM139 713v825h180v-825h-180z" />
<glyph unicode="&#xa7;" horiz-adv-x="823" d="M49 772q0 74 27.5 133.5t68.5 104.5q-29 43 -42 90t-13 106q0 80 28.5 136.5t75 92t102.5 53t114 17.5q127 0 208.5 -76.5t81.5 -220.5h-182q-12 47 -43 73t-65 26q-59 0 -89 -27t-30 -74q0 -33 14 -58.5t39 -47t57.5 -41t69.5 -39.5q51 -29 104.5 -59.5t97.5 -73.5 t72.5 -100.5t28.5 -139.5q0 -70 -25.5 -128t-64.5 -101q23 -41 37 -92.5t14 -108.5q0 -78 -31.5 -136t-81 -97t-107.5 -58.5t-112 -19.5q-66 0 -128 21.5t-111 62.5t-79 102.5t-30 140.5h203q6 -53 43 -91t102 -38q45 0 87 30t42 87q0 55 -35.5 96t-89 77t-117 71t-116.5 77 t-89 97t-36 133zM246 786q0 -35 32.5 -68.5t80 -66.5t96.5 -63.5t84 -57.5q23 25 29.5 53.5t6.5 63.5q0 25 -14 48.5t-45 49t-80 58.5t-117 76l-28 20q-45 -39 -45 -113z" />
<glyph unicode="&#xa8;" horiz-adv-x="483" d="M-41 1077v254h211v-254h-211zM311 1077v254h213v-254h-213z" />
<glyph unicode="&#xa9;" horiz-adv-x="1521" d="M59 709q0 162 52.5 296t146.5 230t224 149.5t286 53.5q164 0 293 -55.5t218 -154t136 -231t47 -288.5q-4 -160 -54 -294t-139 -230.5t-215 -150.5t-286 -54t-291 57t-224 156.5t-143.5 232.5t-50.5 283zM266 709q0 -115 37 -213.5t103.5 -170t158.5 -112.5t203 -41 q113 0 204 45t154.5 119t97 171.5t33.5 201.5q0 111 -34.5 208t-97 169.5t-151.5 115.5t-200 43q-117 0 -210 -43t-159.5 -116.5t-102.5 -171t-36 -205.5zM403 713q0 86 21.5 157.5t67 124t116 81t166.5 28.5q139 0 230.5 -66.5t111.5 -191.5h-213q-16 41 -46 54t-83 13 q-86 0 -119.5 -59t-33.5 -141q0 -39 8 -75t25.5 -63.5t47 -44t72.5 -16.5q72 0 105.5 27.5t40.5 68.5h204q-23 -147 -114.5 -222t-235.5 -75q-184 0 -277.5 104.5t-93.5 295.5z" />
<glyph unicode="&#xaa;" horiz-adv-x="430" d="M16 915q0 49 16.5 82t42 54.5t57.5 31t61 9.5h81q0 59 -16 76.5t-43 17.5q-23 0 -36 -7.5t-19 -29.5h-125q2 33 15 63.5t38 55t59.5 40t79.5 15.5q98 0 139.5 -62.5t41.5 -164.5v-265v-26t2 -25l4 -24h-129q-2 2 -2 8q-2 6 -2 31q-16 -20 -39 -32.5t-64 -12.5 q-31 0 -59.5 10t-51 29.5t-37 51t-14.5 74.5zM137 926q0 -25 14.5 -41.5t45.5 -16.5q35 0 56 16.5t21 63.5v39h-51q-25 0 -55.5 -11t-30.5 -50z" />
<glyph unicode="&#xab;" horiz-adv-x="1155" d="M102 504l267 465h233l-264 -465l264 -463h-233zM553 504l264 465h236l-267 -465l267 -463h-236z" />
<glyph unicode="&#xac;" horiz-adv-x="884" d="M96 539v215h692v-580h-198v365h-494z" />
<glyph unicode="&#xad;" horiz-adv-x="677" d="M92 485v213h494v-213h-494z" />
<glyph unicode="&#xae;" horiz-adv-x="1126" d="M102 1075q0 100 30 189.5t87 155t143.5 103.5t200.5 38q113 0 200 -38t144.5 -103.5t87 -154.5t29.5 -190q0 -102 -29.5 -190t-87 -153.5t-144.5 -103.5t-200 -38q-115 0 -201 38t-143 103.5t-87 153.5t-30 190zM233 1075q0 -76 20.5 -142.5t61.5 -115.5t102.5 -77.5 t145.5 -28.5q82 0 144.5 28.5t103.5 77.5t61.5 115.5t20.5 142.5t-20.5 142.5t-61.5 115.5t-103.5 78t-144.5 29q-84 0 -145.5 -29t-102.5 -78t-61.5 -115.5t-20.5 -142.5zM369 811v530h178q82 0 138 -36.5t56 -126.5q0 -59 -32.5 -100.5t-94.5 -51.5l142 -215h-123 l-121 203h-39v-203h-104zM473 1110h86q31 0 53.5 16.5t22.5 49.5t-21.5 48t-54.5 15h-86v-129z" />
<glyph unicode="&#xb0;" horiz-adv-x="745" d="M104 1112q0 70 23 129t60.5 100t86 65t99.5 24t99 -24t86 -67t60.5 -101t22.5 -126t-22.5 -126t-60.5 -101t-86 -66.5t-99 -23.5t-99.5 23.5t-86 66.5t-60.5 101t-23 126zM266 1112q0 -59 31 -98t76 -39t74.5 39t29.5 98t-29.5 98t-74.5 39t-76 -39t-31 -98z" />
<glyph unicode="&#xb1;" horiz-adv-x="931" d="M96 584v194h281v328h180v-328h279v-194h-279v-303h-180v303h-281zM117 0v203h704v-203h-704z" />
<glyph unicode="&#xb2;" horiz-adv-x="534" d="M33 715v135q0 66 23.5 113t57 84.5t74.5 66.5t75 57.5t57.5 58.5t23.5 68q0 37 -21.5 64t-54.5 27t-52 -26t-21 -54h-156q0 55 19.5 100t50 76t71.5 47t88 16q98 0 161 -65.5t63 -175.5q0 -68 -21.5 -116t-54.5 -84t-70 -63.5t-69.5 -53t-54 -54.5t-21.5 -66h299v-155 h-467z" />
<glyph unicode="&#xb3;" horiz-adv-x="540" d="M20 950h166q0 -37 21.5 -64.5t64.5 -27.5q51 0 70.5 35t19.5 70q0 43 -23.5 75.5t-72.5 32.5h-51v133h43q37 0 56.5 28t19.5 66q0 41 -20.5 66t-51.5 25q-27 0 -53.5 -16.5t-26.5 -63.5h-155q4 123 74.5 184t164.5 61q106 0 172 -64.5t66 -182.5q0 -63 -30 -99.5 t-52 -60.5q14 -12 30.5 -29.5t32 -40t25.5 -51.5t10 -61q0 -49 -18.5 -96.5t-51 -84t-79.5 -58t-105 -21.5q-96 0 -168.5 63t-77.5 182z" />
<glyph unicode="&#xb4;" horiz-adv-x="481" d="M121 1659l250 287l139 -185l-272 -252z" />
<glyph unicode="&#xb5;" horiz-adv-x="929" d="M106 -416v1422h201v-631q0 -92 41 -142.5t117 -50.5q78 0 120 57.5t42 159.5v607h196v-1006h-192v96q-14 -25 -27.5 -45t-33 -36.5t-49 -25.5t-77.5 -9q-47 0 -77.5 13t-63.5 40v-449h-197z" />
<glyph unicode="&#xb6;" horiz-adv-x="1030" d="M109 1034q0 78 18 148.5t53 123t85.5 83t113.5 30.5h516v-129h-127v-1560h-104v1554h-183v-1554h-102v929q-66 2 -117 33t-85 82t-51 117.5t-17 142.5z" />
<glyph unicode="&#xb8;" horiz-adv-x="272" d="M10 -76l64 178h110l-37 -102h13q51 0 82.5 -45t31.5 -111q0 -86 -37.5 -127t-105.5 -41q-47 0 -75.5 28t-43.5 63l72 59q8 -18 18.5 -29.5t28.5 -11.5q47 0 47 59q0 23 -12 41.5t-35 18.5t-36 -10.5t-21 -22.5z" />
<glyph unicode="&#xb9;" horiz-adv-x="552" d="M82 1286v117q57 0 97 30.5t40 100.5h135v-819h-155v571h-117z" />
<glyph unicode="&#xba;" horiz-adv-x="577" d="M29 1135q0 129 58.5 206.5t162.5 77.5q111 0 168 -77.5t57 -206.5q0 -139 -60.5 -212t-164.5 -73q-100 0 -160.5 72.5t-60.5 212.5zM170 1133q0 -59 18.5 -99.5t63.5 -40.5t64.5 40t19.5 100q0 59 -19.5 100t-64.5 41t-63.5 -41t-18.5 -100z" />
<glyph unicode="&#xbb;" horiz-adv-x="1148" d="M102 41l267 463l-267 465h236l264 -465l-264 -463h-236zM553 41l264 463l-264 465h235l267 -465l-267 -463h-235z" />
<glyph unicode="&#xbc;" horiz-adv-x="1193" d="M20 1176v127q61 0 96.5 28.5t35.5 77.5h135v-825h-164v592h-103zM125 -8l686 1528l145 -70l-686 -1534zM608 135v119l295 573h168v-516h62v-176h-62v-135h-158v135h-305zM784 311h129v262z" />
<glyph unicode="&#xbd;" horiz-adv-x="1245" d="M20 1176v127q61 0 96.5 28.5t35.5 77.5h135v-825h-164v592h-103zM125 -8l686 1528l145 -70l-686 -1534zM684 0v119q0 72 21.5 124t55.5 91t71.5 67.5t71.5 56t55.5 57.5t21.5 69q0 37 -16.5 56t-42.5 19q-37 0 -48.5 -19t-17.5 -46h-164q0 57 19.5 102t51.5 76t73 47.5 t86 16.5q94 0 156.5 -65.5t62.5 -176.5q0 -90 -39 -147.5t-89 -101.5t-96.5 -85t-60.5 -96h295v-164h-467z" />
<glyph unicode="&#xbe;" horiz-adv-x="1302" d="M-33 809h162q4 -45 28.5 -63.5t63.5 -18.5q41 0 66.5 24.5t25.5 71.5q0 55 -28.5 82t-79.5 27h-27v135h27q43 0 61.5 34t18.5 66q0 39 -22.5 63.5t-51.5 24.5q-35 0 -55.5 -22.5t-20.5 -58.5h-147q0 115 62.5 179t162.5 64q109 0 166 -63.5t57 -186.5q0 -59 -19.5 -102 t-54.5 -68q41 -23 66 -67.5t25 -104.5q0 -49 -15.5 -96t-46.5 -84t-76 -58.5t-102 -21.5q-100 0 -172 60.5t-74 183.5zM201 -8l686 1528l145 -70l-686 -1534zM707 135v119l294 573h168v-516h62v-176h-62v-135h-157v135h-305zM862 311h150v262z" />
<glyph unicode="&#xbf;" horiz-adv-x="753" d="M72 -43q0 104 40 195.5t111 177.5q25 27 40.5 48t25.5 42.5t14 45t4 54.5v49h211v-51q0 -84 -18.5 -143.5t-45 -102.5t-58 -76.5t-58.5 -67.5t-45.5 -75t-18.5 -96q0 -86 39 -135t109 -49q66 0 98.5 50t42.5 142h209q0 -106 -28.5 -182t-77 -125t-111.5 -72.5t-133 -23.5 q-74 0 -137.5 26.5t-111.5 76.5t-74.5 124t-26.5 168zM289 735v271h246v-271h-246z" />
<glyph unicode="&#xc0;" d="M-18 0l442 1419h225l447 -1419h-234l-106 352h-439l-106 -352h-229zM338 1767l147 177l230 -287l-115 -146zM383 567h307l-153 549z" />
<glyph unicode="&#xc1;" d="M-18 0l442 1419h225l447 -1419h-234l-106 352h-439l-106 -352h-229zM371 1653l233 284l148 -176l-263 -256zM383 567h307l-153 549z" />
<glyph unicode="&#xc2;" d="M-18 0l442 1419h225l447 -1419h-234l-106 352h-439l-106 -352h-229zM246 1651l209 241h166l208 -241l-122 -146l-168 191l-166 -191zM383 567h307l-153 549z" />
<glyph unicode="&#xc3;" d="M-18 0l442 1419h225l447 -1419h-234l-106 352h-439l-106 -352h-229zM266 1561q8 68 30.5 114.5t52.5 74.5t65 40t67 12q27 0 52.5 -12t49 -25.5t47 -26t48.5 -12.5q14 0 27.5 8.5t31.5 47.5h154q-6 -63 -28.5 -109.5t-53.5 -76t-65.5 -44t-67.5 -14.5q-27 0 -52.5 12.5 t-51 26.5t-49 26.5t-44.5 12.5q-14 0 -28.5 -8.5t-30.5 -46.5h-154zM383 567h307l-153 549z" />
<glyph unicode="&#xc4;" d="M-18 0l442 1419h225l447 -1419h-234l-106 352h-439l-106 -352h-229zM254 1556v254h211v-254h-211zM383 567h307l-153 549zM618 1556v254h211v-254h-211z" />
<glyph unicode="&#xc5;" d="M-18 0l426 1370q-37 29 -59.5 79t-22.5 99q0 51 16 95.5t46 77t69 52t84 19.5q47 0 87 -20.5t68.5 -54.5t44 -78t15.5 -91q0 -51 -25.5 -101t-64.5 -79l430 -1368h-234l-106 352h-439l-106 -352h-229zM383 567h307l-153 549zM475 1550q0 -35 17.5 -56t44.5 -26h14 q27 4 44 29t17 53q0 35 -19.5 60.5t-47.5 25.5q-33 0 -51.5 -26.5t-18.5 -59.5z" />
<glyph unicode="&#xc6;" horiz-adv-x="1417" d="M-25 0l525 1419h833v-223h-481v-375h451v-221h-451v-377h496v-223h-717v352h-299l-127 -352h-230zM406 567h225v639z" />
<glyph unicode="&#xc7;" horiz-adv-x="1019" d="M86 713q0 141 20.5 272t73.5 232.5t142.5 162t228.5 60.5q98 0 174 -32t129 -91.5t84 -143t39 -186.5h-227q-6 45 -19.5 86t-37 73t-58.5 50t-86 18q-78 0 -126 -42t-73.5 -111.5t-34 -159.5t-8.5 -188q0 -92 7.5 -183.5t34 -163t76.5 -116.5t136 -45q49 0 84 21.5 t56.5 57t32.5 80t16 91.5h227q-10 -199 -97 -322t-255 -145l-23 -80h16q49 0 82 -45t33 -111q0 -86 -38 -127t-107 -41q-47 0 -76 28t-41 62l72 60q16 -41 45 -41q47 0 47 59q0 23 -12.5 41.5t-34.5 18.5q-23 0 -35 -10.5t-23 -22.5l-61 53l43 152q-121 8 -203 70.5 t-131 162.5t-70.5 228t-21.5 268z" />
<glyph unicode="&#xc8;" horiz-adv-x="897" d="M121 0v1419h706v-225h-487v-373h455v-221h-455v-375h500v-225h-719zM274 1767l148 177l231 -287l-116 -146z" />
<glyph unicode="&#xc9;" horiz-adv-x="897" d="M121 0v1419h706v-225h-487v-373h455v-221h-455v-375h500v-225h-719zM281 1659l254 285l137 -185l-273 -250z" />
<glyph unicode="&#xca;" horiz-adv-x="897" d="M121 0v1419h706v-225h-487v-373h455v-221h-455v-375h500v-225h-719zM188 1647l209 241h166l209 -241l-123 -146l-168 191l-166 -191z" />
<glyph unicode="&#xcb;" horiz-adv-x="897" d="M121 0v1419h706v-225h-487v-373h455v-221h-455v-375h500v-225h-719zM197 1556v254h211v-254h-211zM561 1556v254h213v-254h-213z" />
<glyph unicode="&#xcc;" horiz-adv-x="458" d="M-29 1759l148 176l229 -282l-119 -148zM80 0v1419h219v-1419h-219z" />
<glyph unicode="&#xcd;" horiz-adv-x="460" d="M111 1653l235 284l143 -176l-262 -256zM182 0v1419h221v-1419h-221z" />
<glyph unicode="&#xce;" horiz-adv-x="446" d="M-68 1651l207 241h168l207 -241l-121 -146l-170 191l-164 -191zM111 0v1419h219v-1419h-219z" />
<glyph unicode="&#xcf;" horiz-adv-x="493" d="M-41 1556v254h209v-254h-209zM135 0v1419h219v-1419h-219zM324 1556v254h211v-254h-211z" />
<glyph unicode="&#xd0;" horiz-adv-x="1013" d="M0 616v203h92v600h342q256 0 375 -178t119 -532q0 -158 -23.5 -288t-80 -224.5t-149.5 -145.5t-231 -51h-352v616h-92zM311 223h105q86 0 142 34t89 96.5t46.5 152.5t13.5 203q0 248 -72 367.5t-229 119.5h-95v-377h185v-203h-185v-393z" />
<glyph unicode="&#xd1;" horiz-adv-x="1120" d="M121 0v1419h231l428 -946v946h219v-1419h-227l-434 948v-948h-217zM274 1561q16 137 71.5 189t121.5 52q27 0 52.5 -12t49 -25.5t47 -26t48.5 -12.5q14 0 28.5 8.5t30.5 47.5h135q-14 -129 -71.5 -186.5t-122.5 -57.5q-27 0 -52.5 12.5t-51 26.5t-49.5 26.5t-44 12.5 q-14 0 -28.5 -8.5t-30.5 -46.5h-134z" />
<glyph unicode="&#xd2;" horiz-adv-x="1101" d="M86 713q0 -145 22.5 -277.5t77 -233t143.5 -160.5t222 -60t222 60t143.5 160.5t77 232.5t22.5 278q0 141 -20.5 272t-73 232.5t-142.5 162t-229 60.5t-229.5 -60.5t-142.5 -162t-72.5 -232.5t-20.5 -272zM305 713q0 98 8.5 188t34 159.5t72.5 111.5t125 42q84 0 134 -42 t75.5 -111.5t34 -159.5t8.5 -188q0 -92 -7.5 -183.5t-32 -163t-74.5 -116.5t-136 -45q-82 0 -130 45t-73 116.5t-32 163t-7 183.5zM338 1767l145 177l234 -287l-119 -146z" />
<glyph unicode="&#xd3;" horiz-adv-x="1101" d="M86 713q0 -145 22.5 -277.5t77 -233t143.5 -160.5t222 -60t222 60t143.5 160.5t77 232.5t22.5 278q0 141 -20.5 272t-73 232.5t-142.5 162t-229 60.5t-229.5 -60.5t-142.5 -162t-72.5 -232.5t-20.5 -272zM305 713q0 98 8.5 188t34 159.5t72.5 111.5t125 42q84 0 134 -42 t75.5 -111.5t34 -159.5t8.5 -188q0 -92 -7.5 -183.5t-32 -163t-74.5 -116.5t-136 -45q-82 0 -130 45t-73 116.5t-32 163t-7 183.5zM365 1657l233 287l147 -177l-264 -256z" />
<glyph unicode="&#xd4;" horiz-adv-x="1101" d="M86 713q0 -145 22.5 -277.5t77 -233t143.5 -160.5t222 -60t222 60t143.5 160.5t77 232.5t22.5 278q0 141 -20.5 272t-73 232.5t-142.5 162t-229 60.5t-229.5 -60.5t-142.5 -162t-72.5 -232.5t-20.5 -272zM268 1663l197 229h168l196 -231l-124 -139l-158 178l-158 -178z M305 713q0 98 8.5 188t34 159.5t72.5 111.5t125 42q84 0 134 -42t75.5 -111.5t34 -159.5t8.5 -188q0 -92 -7.5 -183.5t-32 -163t-74.5 -116.5t-136 -45q-82 0 -130 45t-73 116.5t-32 163t-7 183.5z" />
<glyph unicode="&#xd5;" horiz-adv-x="1101" d="M86 713q0 -145 22.5 -277.5t77 -233t143.5 -160.5t222 -60t222 60t143.5 160.5t77 232.5t22.5 278q0 141 -20.5 272t-73 232.5t-142.5 162t-229 60.5t-229.5 -60.5t-142.5 -162t-72.5 -232.5t-20.5 -272zM244 1561q8 68 29.5 114.5t52 74.5t64.5 40t67 12q27 0 52.5 -12 t49 -25.5t47 -26t47.5 -12.5q14 0 28.5 8.5t31.5 47.5h155q-6 -63 -28.5 -109.5t-53 -76t-66.5 -44t-69 -14.5q-25 0 -51.5 12.5t-51 26.5t-49 26.5t-44.5 12.5q-12 0 -26.5 -8.5t-31.5 -46.5h-153zM305 713q0 98 8.5 188t34 159.5t72.5 111.5t125 42q84 0 134 -42 t75.5 -111.5t34 -159.5t8.5 -188q0 -92 -7.5 -183.5t-32 -163t-74.5 -116.5t-136 -45q-82 0 -130 45t-73 116.5t-32 163t-7 183.5z" />
<glyph unicode="&#xd6;" horiz-adv-x="1101" d="M86 713q0 -145 22.5 -277.5t77 -233t143.5 -160.5t222 -60t222 60t143.5 160.5t77 232.5t22.5 278q0 141 -20.5 272t-73 232.5t-142.5 162t-229 60.5t-229.5 -60.5t-142.5 -162t-72.5 -232.5t-20.5 -272zM262 1556v254h209v-254h-209zM305 713q0 98 8.5 188t34 159.5 t72.5 111.5t125 42q84 0 134 -42t75.5 -111.5t34 -159.5t8.5 -188q0 -92 -7.5 -183.5t-32 -163t-74.5 -116.5t-136 -45q-82 0 -130 45t-73 116.5t-32 163t-7 183.5zM627 1556v254h211v-254h-211z" />
<glyph unicode="&#xd7;" horiz-adv-x="997" d="M143 346l211 262l-211 262l125 156l232 -264l229 264l123 -156l-231 -262l233 -264l-127 -151l-229 260l-232 -260z" />
<glyph unicode="&#xd8;" horiz-adv-x="1101" d="M86 713q0 141 20.5 272t72.5 232.5t142.5 162t229.5 60.5q68 0 129 -17l35 99h184l-65 -185q51 -49 86.5 -117.5t56 -149.5t30 -172t9.5 -185q0 -145 -22.5 -277.5t-77 -233t-143.5 -160.5t-222 -60q-102 0 -186 38l-41 -114h-185l84 235q-76 104 -106.5 254t-30.5 318z M305 713q0 -72 4 -143.5t17 -137.5l276 776q-25 6 -57 6q-78 0 -125 -42t-72.5 -111.5t-34 -159.5t-8.5 -188zM440 233q46 -28 107 -28q86 0 136 45t74.5 116.5t32 163t7.5 183.5q0 106 -9.5 203.5t-44.5 168.5z" />
<glyph unicode="&#xd9;" horiz-adv-x="1089" d="M102 586v833h217v-811q0 -80 6.5 -153.5t29 -131t67.5 -92t123 -34.5q76 0 121 33.5t68.5 90t30.5 131t7 156.5v811h215v-833q0 -139 -24.5 -252t-76.5 -192t-136 -120.5t-201 -41.5q-133 0 -219 47t-137.5 130t-71 192.5t-19.5 236.5zM346 1763l146 176l229 -284 l-115 -148z" />
<glyph unicode="&#xda;" horiz-adv-x="1089" d="M102 586v833h217v-811q0 -80 6.5 -153.5t29 -131t67.5 -92t123 -34.5q76 0 121 33.5t68.5 90t30.5 131t7 156.5v811h215v-833q0 -139 -24.5 -252t-76.5 -192t-136 -120.5t-201 -41.5q-133 0 -219 47t-137.5 130t-71 192.5t-19.5 236.5zM362 1655l234 284l145 -176 l-262 -256z" />
<glyph unicode="&#xdb;" horiz-adv-x="1089" d="M102 586v833h217v-811q0 -80 6.5 -153.5t29 -131t67.5 -92t123 -34.5q76 0 121 33.5t68.5 90t30.5 131t7 156.5v811h215v-833q0 -139 -24.5 -252t-76.5 -192t-136 -120.5t-201 -41.5q-133 0 -219 47t-137.5 130t-71 192.5t-19.5 236.5zM264 1663l197 229h170l196 -231 l-127 -139l-155 178l-158 -178z" />
<glyph unicode="&#xdc;" horiz-adv-x="1089" d="M102 586v833h217v-811q0 -80 6.5 -153.5t29 -131t67.5 -92t123 -34.5q76 0 121 33.5t68.5 90t30.5 131t7 156.5v811h215v-833q0 -139 -24.5 -252t-76.5 -192t-136 -120.5t-201 -41.5q-133 0 -219 47t-137.5 130t-71 192.5t-19.5 236.5zM258 1556v254h211v-254h-211z M623 1556v254h213v-254h-213z" />
<glyph unicode="&#xdd;" horiz-adv-x="1048" d="M-8 1419h250l282 -667l291 667h242l-426 -866v-553h-219v553zM362 1655l234 282l123 -176l-260 -254z" />
<glyph unicode="&#xde;" horiz-adv-x="907" d="M121 0v1419h219v-252h127q88 0 161.5 -24.5t127 -75.5t84 -131t30.5 -191q0 -119 -31.5 -199.5t-87 -129.5t-129 -70.5t-155.5 -21.5h-127v-324h-219zM340 549h133q92 0 135 43t43 153q0 100 -53 148.5t-125 48.5h-133v-393z" />
<glyph unicode="&#xdf;" horiz-adv-x="1028" d="M90 711v194h107v111q0 213 78.5 321.5t277.5 108.5q86 0 150.5 -27.5t106.5 -79t62.5 -121t20.5 -155.5q0 -74 -27.5 -136.5t-70.5 -103.5q84 -49 127 -151.5t43 -212.5q0 -109 -23.5 -198t-69 -152.5t-112 -97.5t-152.5 -34q-23 0 -48 3.5t-85 19.5v209 q29 -14 49.5 -20.5t57.5 -6.5q86 0 135 66.5t49 210.5q0 123 -52 187.5t-161 64.5h-49v194h49q61 0 100 43t39 115q0 39 -6 72.5t-21.5 58.5t-42 39t-69.5 14q-51 0 -81 -18.5t-45 -51t-19.5 -75.5t-4.5 -92v-1010h-206v711h-107z" />
<glyph unicode="&#xe0;" horiz-adv-x="839" d="M66 295q0 80 27.5 138.5t71.5 97t98 58t108 21.5l184 11v45q0 86 -26.5 128t-94.5 42q-59 0 -89 -33t-36 -88l-200 2q2 63 25.5 119.5t64.5 98.5t100 66.5t135 24.5q92 0 153.5 -29.5t98.5 -85t53.5 -133.5t16.5 -172v-456q0 -47 1 -77t3 -46q2 -20 4 -27h-180 q-4 8 -6 27q-4 16 -5.5 42.5t-1.5 73.5q-27 -72 -79 -117.5t-115 -45.5q-57 0 -113.5 17t-100.5 54t-70.5 97.5t-26.5 146.5zM260 1411l170 148l188 -338l-139 -121zM268 291q0 -47 28 -79t87 -32q43 0 76 18.5t54.5 51.5t32.5 74t11 88v24l-176 -10q-68 -4 -90.5 -40 t-22.5 -95z" />
<glyph unicode="&#xe1;" horiz-adv-x="839" d="M66 295q0 80 27.5 138.5t71.5 97t98 58t108 21.5l184 11v45q0 86 -26.5 128t-94.5 42q-59 0 -89 -33t-36 -88l-200 2q2 63 25.5 119.5t64.5 98.5t100 66.5t135 24.5q92 0 153.5 -29.5t98.5 -85t53.5 -133.5t16.5 -172v-456q0 -47 1 -77t3 -46q2 -20 4 -27h-180 q-4 8 -6 27q-4 16 -5.5 42.5t-1.5 73.5q-27 -72 -79 -117.5t-115 -45.5q-57 0 -113.5 17t-100.5 54t-70.5 97.5t-26.5 146.5zM268 291q0 -47 28 -79t87 -32q43 0 76 18.5t54.5 51.5t32.5 74t11 88v24l-176 -10q-68 -4 -90.5 -40t-22.5 -95zM303 1241l186 336l168 -150 l-217 -309z" />
<glyph unicode="&#xe2;" horiz-adv-x="839" d="M66 295q0 80 27.5 138.5t71.5 97t98 58t108 21.5l184 11v45q0 86 -26.5 128t-94.5 42q-59 0 -89 -33t-36 -88l-200 2q2 63 25.5 119.5t64.5 98.5t100 66.5t135 24.5q92 0 153.5 -29.5t98.5 -85t53.5 -133.5t16.5 -172v-456q0 -47 1 -77t3 -46q2 -20 4 -27h-180 q-4 8 -6 27q-4 16 -5.5 42.5t-1.5 73.5q-27 -72 -79 -117.5t-115 -45.5q-57 0 -113.5 17t-100.5 54t-70.5 97.5t-26.5 146.5zM238 1194l143 225h162l143 -227l-123 -100l-100 155l-101 -155zM268 291q0 -47 28 -79t87 -32q43 0 76 18.5t54.5 51.5t32.5 74t11 88v24l-176 -10 q-68 -4 -90.5 -40t-22.5 -95z" />
<glyph unicode="&#xe3;" horiz-adv-x="845" d="M66 295q0 80 27.5 138.5t71.5 97t98 58t108 21.5l184 11v45q0 86 -26.5 128t-94.5 42q-59 0 -89 -33t-36 -88l-200 2q2 63 25.5 119.5t64.5 98.5t100 66.5t135 24.5q92 0 153.5 -29.5t98.5 -85t53.5 -133.5t16.5 -172v-456q0 -47 1 -77t3 -46q2 -20 4 -27h-180 q-4 8 -6 27q-4 16 -5.5 42.5t-1.5 73.5q-27 -72 -79 -117.5t-115 -45.5q-57 0 -113.5 17t-100.5 54t-70.5 97.5t-26.5 146.5zM145 1214q8 70 30 114t52.5 68.5t64.5 34t66 9.5q27 0 52.5 -12.5t49 -25.5t47 -25.5t48.5 -12.5q14 0 28.5 8t30.5 47h156q-6 -63 -28.5 -107 t-53.5 -71t-66.5 -38t-68.5 -11q-29 0 -52.5 12.5t-47 27.5t-47 27.5t-50.5 12.5q-12 0 -26.5 -8.5t-30.5 -49.5h-154zM268 291q0 -47 28 -79t87 -32q43 0 76 18.5t54.5 51.5t32.5 74t11 88v24l-176 -10q-68 -4 -90.5 -40t-22.5 -95z" />
<glyph unicode="&#xe4;" horiz-adv-x="839" d="M66 295q0 80 27.5 138.5t71.5 97t98 58t108 21.5l184 11v45q0 86 -26.5 128t-94.5 42q-59 0 -89 -33t-36 -88l-200 2q2 63 25.5 119.5t64.5 98.5t100 66.5t135 24.5q92 0 153.5 -29.5t98.5 -85t53.5 -133.5t16.5 -172v-456q0 -47 1 -77t3 -46q2 -20 4 -27h-180 q-4 8 -6 27q-4 16 -5.5 42.5t-1.5 73.5q-27 -72 -79 -117.5t-115 -45.5q-57 0 -113.5 17t-100.5 54t-70.5 97.5t-26.5 146.5zM170 1155v254h211v-254h-211zM268 291q0 -47 28 -79t87 -32q43 0 76 18.5t54.5 51.5t32.5 74t11 88v24l-176 -10q-68 -4 -90.5 -40t-22.5 -95z M520 1155v254h213v-254h-213z" />
<glyph unicode="&#xe5;" horiz-adv-x="839" d="M66 295q0 80 27.5 138.5t71.5 97t98 58t108 21.5l184 11v45q0 86 -26.5 128t-94.5 42q-59 0 -89 -33t-36 -88l-200 2q2 63 25.5 119.5t64.5 98.5t100 66.5t135 24.5q92 0 153.5 -29.5t98.5 -85t53.5 -133.5t16.5 -172v-456q0 -47 1 -77t3 -46q2 -20 4 -27h-180 q-4 8 -6 27q-4 16 -5.5 42.5t-1.5 73.5q-27 -72 -79 -117.5t-115 -45.5q-57 0 -113.5 17t-100.5 54t-70.5 97.5t-26.5 146.5zM268 291q0 -47 28 -79t87 -32q43 0 76 18.5t54.5 51.5t32.5 74t11 88v24l-176 -10q-68 -4 -90.5 -40t-22.5 -95zM270 1374q0 45 17.5 86t45 71 t63.5 47t73 17t73 -17t63.5 -48t45 -71t17.5 -85t-17.5 -85t-46.5 -70.5t-63.5 -48t-71.5 -17.5t-73 17.5t-63.5 48t-45 70.5t-17.5 85zM399 1372q0 -37 21.5 -59.5t44.5 -22.5q29 0 47 23.5t18 58.5q0 37 -18 59.5t-47 22.5t-47.5 -23.5t-18.5 -58.5z" />
<glyph unicode="&#xe6;" horiz-adv-x="1370" d="M66 295q0 80 27.5 138.5t71.5 97t98 58t108 21.5l184 11v45q0 86 -26.5 128t-94.5 42q-59 0 -89 -33t-36 -88l-200 2q2 63 25.5 119.5t64.5 98.5t100 66.5t135 24.5q88 0 147.5 -27.5t98.5 -78.5q98 104 258 104q164 0 265.5 -129t101.5 -389v-72h-545q6 -53 15 -100 t28.5 -83t52.5 -56.5t86 -20.5q70 0 102.5 39t51.5 121h209q-16 -98 -49 -166t-80.5 -110t-106.5 -60t-127 -18q-106 0 -182 41.5t-123 119.5q-43 -72 -105.5 -116.5t-154.5 -44.5q-57 0 -113.5 17t-100.5 54t-70.5 97.5t-26.5 146.5zM268 291q0 -47 28 -79t87 -32 q43 0 76 18.5t54.5 51.5t32.5 74t11 88v24l-176 -10q-68 -4 -90.5 -40t-22.5 -95zM764 621h330q-4 43 -13.5 81.5t-28 68.5t-47 47.5t-67.5 17.5q-43 0 -75 -18.5t-52 -48.5t-31.5 -68.5t-15.5 -79.5z" />
<glyph unicode="&#xe7;" horiz-adv-x="874" d="M66 504q0 117 22.5 212t69.5 163.5t118.5 106.5t169.5 38q68 0 127.5 -22.5t107.5 -66.5t80 -108.5t44 -148.5h-213q-18 72 -53 115t-93 43q-53 0 -86.5 -28t-53 -75t-28 -107.5t-8.5 -123.5t8.5 -123t28 -105t53 -72.5t86.5 -27.5q76 0 109 52.5t47 140.5h207 q-18 -170 -97 -268.5t-210 -114.5l-23 -76h17q51 0 82.5 -45t31.5 -111q0 -168 -143 -168q-47 0 -76 28t-43 62l74 60q14 -41 45 -41q47 0 47 59q0 23 -12.5 41.5t-34.5 18.5q-23 0 -35 -10.5t-22 -22.5l-62 53l43 152q-162 18 -243.5 152t-81.5 368z" />
<glyph unicode="&#xe8;" horiz-adv-x="880" d="M66 502q0 266 105 394t278 128q164 0 265 -129t101 -389v-72h-545q6 -53 15.5 -100t29 -83t52 -56.5t86.5 -20.5q70 0 102.5 39t50.5 121h209q-16 -98 -49 -166t-80 -110t-106.5 -60t-126.5 -18q-102 0 -175 39.5t-120 109.5t-69.5 165t-22.5 208zM238 1409l168 150 l190 -340l-139 -121zM274 621h330q-4 43 -13 81.5t-27.5 68.5t-47.5 47.5t-67 17.5q-43 0 -75 -18.5t-52.5 -48.5t-31.5 -68.5t-16 -79.5z" />
<glyph unicode="&#xe9;" horiz-adv-x="880" d="M66 502q0 266 105 394t278 128q164 0 265 -129t101 -389v-72h-545q6 -53 15.5 -100t29 -83t52 -56.5t86.5 -20.5q70 0 102.5 39t50.5 121h209q-16 -98 -49 -166t-80 -110t-106.5 -60t-126.5 -18q-102 0 -175 39.5t-120 109.5t-69.5 165t-22.5 208zM274 621h330 q-4 43 -13 81.5t-27.5 68.5t-47.5 47.5t-67 17.5q-43 0 -75 -18.5t-52.5 -48.5t-31.5 -68.5t-16 -79.5zM291 1219l192 340l168 -150l-217 -311z" />
<glyph unicode="&#xea;" horiz-adv-x="880" d="M66 502q0 266 105 394t278 128q164 0 265 -129t101 -389v-72h-545q6 -53 15.5 -100t29 -83t52 -56.5t86.5 -20.5q70 0 102.5 39t50.5 121h209q-16 -98 -49 -166t-80 -110t-106.5 -60t-126.5 -18q-102 0 -175 39.5t-120 109.5t-69.5 165t-22.5 208zM221 1194l144 225h161 l144 -227l-123 -100l-101 155l-100 -155zM274 621h330q-4 43 -13 81.5t-27.5 68.5t-47.5 47.5t-67 17.5q-43 0 -75 -18.5t-52.5 -48.5t-31.5 -68.5t-16 -79.5z" />
<glyph unicode="&#xeb;" horiz-adv-x="880" d="M66 502q0 266 105 394t278 128q164 0 265 -129t101 -389v-72h-545q6 -53 15.5 -100t29 -83t52 -56.5t86.5 -20.5q70 0 102.5 39t50.5 121h209q-16 -98 -49 -166t-80 -110t-106.5 -60t-126.5 -18q-102 0 -175 39.5t-120 109.5t-69.5 165t-22.5 208zM174 1155v254h211v-254 h-211zM274 621h330q-4 43 -13 81.5t-27.5 68.5t-47.5 47.5t-67 17.5q-43 0 -75 -18.5t-52.5 -48.5t-31.5 -68.5t-16 -79.5zM526 1155v254h211v-254h-211z" />
<glyph unicode="&#xec;" horiz-adv-x="393" d="M-20 1409l170 150l190 -340l-141 -121zM94 0v1006h201v-1006h-201z" />
<glyph unicode="&#xed;" horiz-adv-x="452" d="M61 1219l193 340l168 -150l-219 -311zM113 0v1006h200v-1006h-200z" />
<glyph unicode="&#xee;" horiz-adv-x="448" d="M0 1194l143 225h164l142 -227l-121 -100l-103 155l-100 -155zM125 0v1006h201v-1006h-201z" />
<glyph unicode="&#xef;" horiz-adv-x="563" d="M0 1155v254h211v-254h-211zM180 0v1006h201v-1006h-201zM352 1155v254h211v-254h-211z" />
<glyph unicode="&#xf0;" horiz-adv-x="851" d="M66 500q0 115 20 211t64.5 166.5t113 110.5t162.5 40q8 0 16.5 -1t12.5 -5l-41 88h-172v172h104l-67 158h188l65 -158h156v-172h-82q55 -119 91 -215t55.5 -172t26.5 -131t7 -92q0 -115 -21.5 -210t-65.5 -166t-111.5 -110t-161.5 -39q-98 0 -167 42t-112 113t-62 166 t-19 204zM268 500q0 -59 6.5 -116.5t23.5 -102.5t48 -73t80 -28q51 0 82 31t47 78t21.5 103.5t5.5 107.5q0 57 -6.5 115.5t-23.5 103.5t-47 73.5t-79 28.5q-53 0 -84 -30.5t-47 -77.5t-21.5 -104.5t-5.5 -108.5z" />
<glyph unicode="&#xf1;" horiz-adv-x="927" d="M106 0v1006h197v-76q41 61 85 78.5t97 17.5q156 0 246 -88t90 -283v-655h-200v631q0 92 -41 142t-117 50q-78 0 -117 -57t-39 -160v-606h-201zM162 1214q8 70 29.5 114t52 68.5t64.5 34t67 9.5q27 0 52.5 -12.5t49 -25.5t47 -25.5t47.5 -12.5q14 0 28.5 8t31.5 47h155 q-6 -63 -28.5 -107t-53 -71t-66.5 -38t-69 -11q-29 0 -52 12.5t-47 27.5t-47.5 27.5t-49.5 12.5q-12 0 -26.5 -8.5t-31.5 -49.5h-153z" />
<glyph unicode="&#xf2;" horiz-adv-x="894" d="M66 504q0 117 22.5 212t68.5 163.5t118.5 106.5t170.5 38t171 -38t120 -106.5t69.5 -163.5t22.5 -212q0 -252 -96 -388t-287 -136q-188 0 -284 136t-96 388zM246 1409l170 150l190 -340l-141 -121zM268 502q0 -63 8.5 -123t28 -105t54 -72.5t87.5 -27.5t88 27.5 t54.5 72.5t28 104.5t8.5 123.5q0 63 -8.5 123.5t-28 107.5t-54.5 75t-88 28t-87.5 -28t-54 -75t-28 -107.5t-8.5 -123.5z" />
<glyph unicode="&#xf3;" horiz-adv-x="894" d="M66 504q0 117 22.5 212t68.5 163.5t118.5 106.5t170.5 38t171 -38t120 -106.5t69.5 -163.5t22.5 -212q0 -252 -96 -388t-287 -136q-188 0 -284 136t-96 388zM268 502q0 -63 8.5 -123t28 -105t54 -72.5t87.5 -27.5t88 27.5t54.5 72.5t28 104.5t8.5 123.5q0 63 -8.5 123.5 t-28 107.5t-54.5 75t-88 28t-87.5 -28t-54 -75t-28 -107.5t-8.5 -123.5zM297 1219l188 340l168 -150l-219 -311z" />
<glyph unicode="&#xf4;" horiz-adv-x="894" d="M66 504q0 117 22.5 212t68.5 163.5t118.5 106.5t170.5 38t171 -38t120 -106.5t69.5 -163.5t22.5 -212q0 -252 -96 -388t-287 -136q-188 0 -284 136t-96 388zM223 1194l144 225h163l142 -227l-121 -100l-102 155l-101 -155zM268 502q0 -63 8.5 -123t28 -105t54 -72.5 t87.5 -27.5t88 27.5t54.5 72.5t28 104.5t8.5 123.5q0 63 -8.5 123.5t-28 107.5t-54.5 75t-88 28t-87.5 -28t-54 -75t-28 -107.5t-8.5 -123.5z" />
<glyph unicode="&#xf5;" horiz-adv-x="894" d="M66 504q0 117 22.5 212t68.5 163.5t118.5 106.5t170.5 38t171 -38t120 -106.5t69.5 -163.5t22.5 -212q0 -252 -96 -388t-287 -136q-188 0 -284 136t-96 388zM133 1214q8 70 29.5 114t52.5 68.5t64.5 34t66.5 9.5q27 0 52.5 -12.5t49 -25.5t47 -25.5t48.5 -12.5 q14 0 28.5 8t30.5 47h156q-6 -63 -28.5 -107t-53.5 -71t-66 -38t-67 -11q-29 0 -53.5 12.5t-48 27.5t-47 27.5t-48.5 12.5q-14 0 -28.5 -8.5t-30.5 -49.5h-154zM268 502q0 -63 8.5 -123t28 -105t54 -72.5t87.5 -27.5t88 27.5t54.5 72.5t28 104.5t8.5 123.5q0 63 -8.5 123.5 t-28 107.5t-54.5 75t-88 28t-87.5 -28t-54 -75t-28 -107.5t-8.5 -123.5z" />
<glyph unicode="&#xf6;" horiz-adv-x="894" d="M66 504q0 117 22.5 212t68.5 163.5t118.5 106.5t170.5 38t171 -38t120 -106.5t69.5 -163.5t22.5 -212q0 -252 -96 -388t-287 -136q-188 0 -284 136t-96 388zM170 1155v254h209v-254h-209zM268 502q0 -63 8.5 -123t28 -105t54 -72.5t87.5 -27.5t88 27.5t54.5 72.5 t28 104.5t8.5 123.5q0 63 -8.5 123.5t-28 107.5t-54.5 75t-88 28t-87.5 -28t-54 -75t-28 -107.5t-8.5 -123.5zM520 1155v254h213v-254h-213z" />
<glyph unicode="&#xf7;" horiz-adv-x="983" d="M96 516v215h791v-215h-791zM375 135v266h233v-266h-233zM375 854v268h233v-268h-233z" />
<glyph unicode="&#xf8;" horiz-adv-x="894" d="M66 504q0 117 22.5 212t68.5 163.5t118.5 106.5t170.5 38q23 0 43.5 -2t38.5 -6l25 67h180l-51 -141q76 -68 111.5 -180.5t35.5 -257.5q0 -252 -96 -388t-287 -136q-55 0 -100 12l-24 -70h-179l54 152q-131 135 -131 430zM268 502q0 -47 4 -91t15 -83l178 506q-7 2 -19 2 q-53 0 -87.5 -28t-54 -75t-28 -107.5t-8.5 -123.5zM412 176q8 -2 16 -2h18q53 0 88 27.5t54.5 72.5t28 104.5t8.5 123.5q0 53 -6.5 105t-20.5 95z" />
<glyph unicode="&#xf9;" horiz-adv-x="933" d="M106 350v656h201v-639q0 -92 42 -142.5t118 -50.5q78 0 119 57.5t41 159.5v615h200v-1006h-194v98q-39 -63 -88 -90.5t-103 -27.5q-158 0 -247 87t-89 283zM266 1409l170 145l185 -333l-138 -121z" />
<glyph unicode="&#xfa;" horiz-adv-x="933" d="M106 350v656h201v-639q0 -92 42 -142.5t118 -50.5q78 0 119 57.5t41 159.5v615h200v-1006h-194v98q-39 -63 -88 -90.5t-103 -27.5q-158 0 -247 87t-89 283zM317 1221l183 331l170 -145l-217 -307z" />
<glyph unicode="&#xfb;" horiz-adv-x="933" d="M106 350v656h201v-639q0 -92 42 -142.5t118 -50.5q78 0 119 57.5t41 159.5v615h200v-1006h-194v98q-39 -63 -88 -90.5t-103 -27.5q-158 0 -247 87t-89 283zM240 1194l145 225h162l141 -227l-121 -100l-102 155l-100 -155z" />
<glyph unicode="&#xfc;" horiz-adv-x="933" d="M106 350v656h201v-639q0 -92 42 -142.5t118 -50.5q78 0 119 57.5t41 159.5v615h200v-1006h-194v98q-39 -63 -88 -90.5t-103 -27.5q-158 0 -247 87t-89 283zM174 1155v254h211v-254h-211zM526 1155v254h211v-254h-211z" />
<glyph unicode="&#xfd;" horiz-adv-x="884" d="M16 1006h211l213 -730l213 730h215l-393 -1166q-33 -96 -89 -163.5t-142 -67.5q-37 0 -78 7t-76 24v198q18 -6 37 -10q35 -10 63 -10q31 0 51.5 25.5t36 60.5t25.5 71.5t19 61.5zM291 1219l184 335l170 -147l-215 -307z" />
<glyph unicode="&#xfe;" horiz-adv-x="919" d="M106 -410v1846h201v-502q35 49 74 70.5t94 21.5q98 0 170 -38t119 -107.5t69.5 -164.5t22.5 -212q0 -252 -97 -388t-280 -136q-47 0 -75.5 10t-46 25.5t-29 36t-23.5 42.5v-504h-199zM303 475q0 -53 8 -105.5t28.5 -93t53.5 -66.5t82 -26q51 0 86 26t54.5 70t27.5 101 t8 121q0 63 -8 122.5t-27.5 103.5t-54.5 70.5t-86 26.5q-49 0 -81 -24.5t-52 -66.5t-28.5 -98t-10.5 -118v-43z" />
<glyph unicode="&#xff;" horiz-adv-x="884" d="M16 1006h211l213 -730l213 730h215l-393 -1166q-33 -96 -89 -163.5t-142 -67.5q-37 0 -78 7t-76 24v198q18 -6 37 -10q35 -10 63 -10q31 0 51.5 25.5t36 60.5t25.5 71.5t19 61.5zM156 1155v254h211v-254h-211zM508 1155v254h211v-254h-211z" />
<glyph unicode="&#x152;" horiz-adv-x="1585" d="M86 713q0 141 20.5 272t72.5 232.5t142.5 162t229.5 60.5q76 0 140.5 -23.5t105.5 -89.5v92h706v-225h-487v-373h454v-221h-454v-375h500v-225h-719v98q-14 -35 -41 -56.5t-59.5 -35.5t-70.5 -19t-75 -5q-133 0 -222 60t-143.5 160.5t-77 232.5t-22.5 278zM305 713 q0 -92 7 -183.5t32 -163t73 -116.5t130 -45q86 0 136 45t74.5 116.5t32 163t7.5 183.5q0 98 -8.5 188t-34 159.5t-75.5 111.5t-134 42q-78 0 -125 -42t-72.5 -111.5t-34 -159.5t-8.5 -188z" />
<glyph unicode="&#x153;" horiz-adv-x="1431" d="M63 504q0 117 23 212t69 163.5t118.5 106.5t170.5 38q94 0 163 -34t116 -95q51 66 121.5 97.5t156.5 31.5q164 0 265.5 -129t101.5 -389v-72h-543q0 -4 -1 -6t-1 -6q6 -51 16.5 -96t30 -79t52 -53.5t84.5 -19.5q70 0 102.5 39t50.5 121h209q-16 -98 -49 -166t-80 -110 t-106.5 -60t-126.5 -18q-94 0 -164 33.5t-117 95.5q-100 -129 -281 -129q-188 0 -284.5 136t-96.5 388zM266 502q0 -63 8.5 -123t28 -105t54 -72.5t87.5 -27.5t88 27.5t54.5 72.5t28 104.5t8.5 123.5q0 63 -8.5 123.5t-28 107.5t-54.5 75t-88 28t-87.5 -28t-54 -75 t-28 -107.5t-8.5 -123.5zM827 621h330q-4 43 -13 81.5t-27.5 68.5t-47.5 47.5t-68 17.5q-43 0 -74.5 -18.5t-52 -48.5t-32 -68.5t-15.5 -79.5z" />
<glyph unicode="&#x178;" horiz-adv-x="1048" d="M-8 1419h250l282 -667l291 667h242l-426 -866v-553h-219v553zM238 1556v254h208v-254h-208zM602 1556v254h211v-254h-211z" />
<glyph unicode="&#x2c6;" horiz-adv-x="440" d="M-68 1090l211 329h160l205 -329h-199l-86 143l-86 -143h-205z" />
<glyph unicode="&#x2dc;" horiz-adv-x="460" d="M-82 1221q8 70 30.5 115.5t52.5 73.5t63.5 40t66.5 12q27 0 51.5 -12t48 -25.5t48 -26t49.5 -12.5q14 0 28.5 8.5t30.5 47.5h156q-6 -63 -28.5 -109.5t-53.5 -76t-66 -44t-67 -14.5q-29 0 -53.5 12.5t-48 27.5t-47 27.5t-50.5 12.5q-14 0 -28.5 -8t-30.5 -49h-152z" />
<glyph unicode="&#x2000;" horiz-adv-x="973" />
<glyph unicode="&#x2001;" horiz-adv-x="1946" />
<glyph unicode="&#x2002;" horiz-adv-x="973" />
<glyph unicode="&#x2003;" horiz-adv-x="1946" />
<glyph unicode="&#x2004;" horiz-adv-x="648" />
<glyph unicode="&#x2005;" horiz-adv-x="486" />
<glyph unicode="&#x2006;" horiz-adv-x="324" />
<glyph unicode="&#x2007;" horiz-adv-x="324" />
<glyph unicode="&#x2008;" horiz-adv-x="243" />
<glyph unicode="&#x2009;" horiz-adv-x="389" />
<glyph unicode="&#x200a;" horiz-adv-x="108" />
<glyph unicode="&#x2010;" horiz-adv-x="677" d="M92 485v213h494v-213h-494z" />
<glyph unicode="&#x2011;" horiz-adv-x="677" d="M92 485v213h494v-213h-494z" />
<glyph unicode="&#x2012;" horiz-adv-x="677" d="M92 485v213h494v-213h-494z" />
<glyph unicode="&#x2013;" horiz-adv-x="866" d="M0 487v205h866v-205h-866z" />
<glyph unicode="&#x2014;" horiz-adv-x="1552" d="M0 487v205h1552v-205h-1552z" />
<glyph unicode="&#x2018;" horiz-adv-x="565" d="M129 1006l131 413h176l-74 -413h-233z" />
<glyph unicode="&#x2019;" horiz-adv-x="571" d="M129 1006l74 413h239l-133 -413h-180z" />
<glyph unicode="&#x201a;" horiz-adv-x="577" d="M129 -193l80 467h240l-142 -467h-178z" />
<glyph unicode="&#x201c;" horiz-adv-x="925" d="M137 1006l131 413h178l-75 -413h-234zM481 1006l131 413h176l-73 -413h-234z" />
<glyph unicode="&#x201d;" horiz-adv-x="937" d="M137 1006l74 413h240l-134 -413h-180zM487 1006l74 413h240l-133 -413h-181z" />
<glyph unicode="&#x201e;" horiz-adv-x="929" d="M137 -193l80 467h240l-140 -467h-180zM473 -193l80 467h240l-142 -467h-178z" />
<glyph unicode="&#x2022;" horiz-adv-x="1765" d="M147 709q0 152 57.5 285.5t158 233t234.5 158t286 58.5t286 -58.5t233 -158t157.5 -233.5t58.5 -285q0 -152 -58.5 -286t-157.5 -234.5t-233.5 -158t-285.5 -57.5q-152 0 -286 57.5t-234.5 158t-158 234.5t-57.5 286z" />
<glyph unicode="&#x2026;" horiz-adv-x="1486" d="M225 0v270h236v-270h-236zM625 0v270h235v-270h-235zM1026 0v270h236v-270h-236z" />
<glyph unicode="&#x202f;" horiz-adv-x="389" />
<glyph unicode="&#x2039;" horiz-adv-x="698" d="M98 504l267 465h235l-264 -465l264 -463h-235z" />
<glyph unicode="&#x203a;" horiz-adv-x="698" d="M98 41l264 463l-264 465h236l266 -465l-266 -463h-236z" />
<glyph unicode="&#x205f;" horiz-adv-x="486" />
<glyph unicode="&#x20ac;" horiz-adv-x="978" d="M0 465v176h109v139h-109v178h125q33 236 147.5 361t309.5 125q80 0 149.5 -21.5t122.5 -65.5t85 -109.5t36 -151.5h-230q-29 53 -66.5 85.5t-96.5 32.5q-55 0 -94 -17t-67 -50t-45.5 -81t-29.5 -108h363v-178h-381v-139h381v-176h-363q27 -129 76 -194.5t160 -65.5 q61 0 98 30.5t63 90.5h236q-12 -96 -50 -162t-92.5 -107t-120 -59t-134.5 -18q-109 0 -188 38.5t-134 104t-88 155t-47 187.5h-125z" />
<glyph unicode="&#x2122;" horiz-adv-x="1257" d="M41 1274v145h459v-145h-146v-434h-147v434h-166zM569 840v579h176l119 -334l115 334h176v-579h-149v297l-99 -297h-90l-98 297v-297h-150z" />
<glyph unicode="&#x25fc;" horiz-adv-x="1003" d="M0 0v1004h1004v-1004h-1004z" />
</font>
</defs>
</svg>
